<?xml version="1.0" standalone="no"?>
<!DOCTYPE svg PUBLIC "-//W3C//DTD SVG 1.1//EN" "http://www.w3.org/Graphics/SVG/1.1/DTD/svg11.dtd" >
<svg xmlns="http://www.w3.org/2000/svg" xmlns:xlink="http://www.w3.org/1999/xlink" version="1.1">
<metadata></metadata>
<defs>
<font id="lobster_1.3regular" horiz-adv-x="1347" >
<font-face units-per-em="2048" ascent="1536" descent="-512" />
<missing-glyph horiz-adv-x="444" />
<glyph unicode="&#xfb01;" horiz-adv-x="1148" d="M-412 -291q0 55 19.5 99t48 73t79.5 55.5t95 42.5t113 37l245 1170q17 84 57.5 148.5t88 101t106 60t106 31t93.5 7.5q52 0 95.5 -3.5t93.5 -12t88.5 -26.5t71 -44.5t50 -68.5t17.5 -95q0 -65 -46 -108t-100 -43q-69 0 -104 24t-35 86q0 42 17 73.5t44 31.5q13 0 19 -2 q-3 69 -111 69q-93 0 -162.5 -66t-89.5 -157l-34 -168h206l-16 -82h-207l-233 -1106q-18 -84 -50 -148t-68.5 -101.5t-82.5 -60.5t-86.5 -30.5t-85.5 -7.5q-97 0 -169.5 62t-72.5 159zM-299 -262q0 -23 25 -45.5t57 -22.5q36 0 70 38.5t51 121.5l24 119q-109 -36 -168 -85 t-59 -126zM571 223q0 42 13 105l145 696h297l-147 -696q-11 -42 -11 -66q0 -37 23 -56.5t80 -19.5q29 0 67 20.5t66 43.5t73.5 62.5t63.5 54.5h70q-13 -13 -56.5 -58.5t-76.5 -79.5t-84.5 -80t-93 -76t-89.5 -51.5t-86 -21.5q-254 0 -254 223z" />
<glyph unicode="&#xfb02;" horiz-adv-x="1185" d="M-395 -291q0 55 19.5 99t48 73t79 55.5t94.5 42.5t113 37l246 1170q18 84 50 148t69 101t83 60.5t86.5 31t84.5 7.5q86 0 185.5 -22t170.5 -47.5t186 -71.5l-225 -1065q-10 -38 -10 -66q0 -37 22.5 -56.5t79.5 -19.5q29 0 67 20.5t66 43.5t73.5 62.5t63.5 54.5h70 q-14 -14 -57 -59t-76 -79t-84 -80t-93 -76t-89.5 -51.5t-85.5 -21.5q-122 0 -188 55t-66 168q0 47 12 105l221 1044q-35 15 -88 24t-80 9q-105 0 -139 -162l-45 -219h190l-16 -82h-190l-234 -1106q-18 -84 -50 -148t-68.5 -101.5t-82.5 -60.5t-86.5 -30.5t-85.5 -7.5 q-97 0 -169 62t-72 159zM-283 -262q0 -23 25 -45.5t57 -22.5q36 0 70 38.5t51 121.5l25 119q-109 -36 -168.5 -85t-59.5 -126z" />
<glyph unicode="&#xfb03;" horiz-adv-x="1501" d="M-428 -291q0 55 19.5 99t48 73t79 55.5t94.5 42.5t113 37l246 1170q18 84 50 148t68.5 101.5t82.5 60.5t86.5 30.5t85.5 7.5q73 0 135.5 -37.5t89.5 -101.5q116 139 322 139q66 0 108 -3t89.5 -15.5t76.5 -36t52.5 -65t33.5 -101.5q2 -10 2 -29q0 -64 -46 -107.5 t-99 -43.5q-69 0 -104.5 24t-35.5 86q0 44 16 74.5t48 30.5l16 -2q-1 39 -16.5 54t-48.5 15q-16 0 -31 -2t-43 -14.5t-50.5 -34t-46.5 -66.5t-38 -106l-39 -168h491l-145 -696q-10 -58 -10 -66q0 -37 22.5 -56.5t79.5 -19.5q29 0 67.5 20.5t66.5 43.5t73.5 63t63.5 54h69 q-14 -14 -57 -59t-76 -79t-84 -80t-93 -76t-89.5 -51.5t-85.5 -21.5q-122 0 -188 55t-66 168q0 47 12 105l127 614h-194l-230 -1106q-18 -84 -50 -148t-68.5 -101.5t-82.5 -60.5t-86.5 -30.5t-85.5 -7.5q-77 0 -135 35.5t-86 99.5q-99 -135 -282 -135q-97 0 -169.5 62 t-72.5 159zM-303 -262q0 -23 25 -45.5t57 -22.5q36 0 70 38.5t51 121.5l24 119q-109 -36 -168 -85t-59 -126zM154 -274v-9q0 -24 28.5 -41.5t87.5 -17.5q31 0 67.5 44.5t53.5 127.5l47 231l-213 -45l-39 -180q-6 -23 -32 -110zM238 74l211 37l176 831h-203zM438 1024h203 q43 204 43 205q4 40 4 55q0 34 -22.5 52t-55.5 18q-19 0 -37 -6.5t-38.5 -22.5t-37 -50t-26.5 -83z" />
<glyph unicode="&#xfb04;" horiz-adv-x="1566" d="M-426 -291q0 55 19.5 99t48 73t79 55.5t94.5 42.5t113 37l246 1170q18 84 50 148t68.5 101.5t82.5 60.5t86.5 30.5t85.5 7.5q70 0 131 -35.5t90 -95.5q98 133 272 133q132 0 247.5 -34.5t266.5 -112.5l-223 -1061q-10 -38 -10 -66q0 -37 22.5 -56.5t79.5 -19.5 q29 0 67.5 20.5t66.5 43.5t73.5 63t63.5 54h69q-14 -14 -57 -59t-76 -79t-84 -80t-93 -76t-89.5 -51.5t-85.5 -21.5q-122 0 -188 55t-66 168q0 47 12 105l221 1044q-76 33 -131 33q-100 0 -139 -162l-51 -219h197l-17 -82h-196l-228 -1106q-18 -84 -50 -148t-69.5 -101 t-83.5 -60.5t-86 -31t-84 -7.5q-67 0 -134 30t-107 81q-98 -111 -262 -111q-97 0 -169.5 62t-72.5 159zM-301 -262q0 -23 25 -45.5t57 -22.5q36 0 70 38.5t51 121.5l24 119q-109 -36 -168 -85t-59 -126zM141 -307q33 -31 111 -31q38 0 80.5 42.5t60.5 125.5l49 231l-217 -45 l-37 -180q-17 -78 -47 -143zM238 76l215 35l174 831h-205zM438 1024h205l35 162q8 39 8 74q0 94 -74 94q-105 0 -139 -162z" />
<glyph horiz-adv-x="0" />
<glyph horiz-adv-x="682" />
<glyph unicode=" "  horiz-adv-x="444" />
<glyph unicode="&#x09;" horiz-adv-x="444" />
<glyph unicode="&#xa0;" horiz-adv-x="444" />
<glyph unicode="!" horiz-adv-x="458" d="M2 164q0 67 48 114.5t116 47.5t115 -47t47 -115t-47.5 -116t-114.5 -48q-68 0 -116 48t-48 116zM133 473l146 961h294l-266 -961h-174z" />
<glyph unicode="&#x22;" horiz-adv-x="860" d="M127 1149l125 387h215l-186 -387h-154zM449 1149l124 387h215l-186 -387h-153z" />
<glyph unicode="#" horiz-adv-x="1349" d="M92 227l43 209h213l43 232h-209l43 209h203l107 593h180l-133 -593h215l106 593h180l-133 -593h213l-41 -209h-217l-51 -232h219l-41 -209h-225l-62 -282h-116l51 282h-242l-61 -282h-117l51 282h-219zM485 436h232l43 232h-223z" />
<glyph unicode="$" horiz-adv-x="825" d="M49 455q0 78 43 127t105 49q41 0 64.5 -15t23.5 -36q-82 -14 -82 -152q0 -42 25 -75.5t61 -49.5l73 402q-16 14 -49 39.5t-51.5 41t-44 41t-39 46.5t-23.5 50.5t-10 61.5q0 109 98 186t218 82l39 217h118l-51 -223q178 -28 178 -170q0 -71 -26.5 -113t-71.5 -42 q-42 0 -80 47q49 28 49 106q0 26 -16.5 51.5t-48.5 38.5l-74 -329l46.5 -31t43.5 -31t46 -38t36.5 -41t33 -50t18 -55.5t8.5 -67.5q0 -142 -102 -221t-267 -82l-59 -274h-56l49 276q-103 8 -164 64t-61 170zM340 1024q0 -68 57 -125l49 277q-55 -11 -80.5 -55t-25.5 -97z M358 295q69 8 102.5 59.5t33.5 124.5q0 82 -60 156z" />
<glyph unicode="%" horiz-adv-x="1318" d="M219 999q0 187 91 313t241 126q87 0 127.5 -58.5t40.5 -173.5q0 -68 -20.5 -142.5t-57 -142t-96 -111.5t-129.5 -44q-113 0 -155 57t-42 176zM248 0l790 1536h148l-791 -1536h-147zM367 975q0 -133 55 -133q53 0 93 56t60.5 145t20.5 194q0 62 -10.5 95.5t-40.5 33.5 q-50 0 -106.5 -83.5t-67.5 -219.5q-4 -50 -4 -88zM727 233q0 187 91 313t241 126q90 0 139 -60t49 -172q0 -55 -10.5 -112.5t-35 -117t-60.5 -106t-92.5 -75.5t-124.5 -29q-113 0 -155 57t-42 176zM864 209q0 -133 56 -133q53 0 91.5 52.5t57 137.5t18.5 191q0 139 -57 139 q-49 0 -100 -81t-62 -218q-4 -50 -4 -88z" />
<glyph unicode="&#x26;" horiz-adv-x="1396" d="M23 401q0 102 39.5 193.5t125.5 163.5t205 96q-101 55 -152 137t-51 174q0 71 31 137t87 118.5t144 84t193 31.5q74 0 139.5 -15.5t120 -46.5t86 -85.5t31.5 -126.5q0 -87 -34.5 -138t-108.5 -51q-71 0 -117 53q35 10 62.5 67t27.5 101q0 15 -1 29t-9 38.5t-21 41.5 t-40 30t-64 13q-110 0 -180 -73.5t-70 -178.5q0 -96 66.5 -186.5t203.5 -151.5q-183 -75 -269.5 -185.5t-86.5 -226.5q0 -112 71 -192t169 -80q57 0 110 19t104.5 61t92 120.5t63.5 186.5q-22 1 -70.5 5.5t-74.5 4.5q-134 0 -193 -92l-14 2q32 130 136.5 209.5t258.5 79.5 q29 0 80 -5t76 -5q61 0 115 22.5t79 65.5h13q0 -87 -94.5 -175.5t-217.5 -109.5q-25 -91 -56.5 -167t-63 -131.5t-71 -99.5t-73.5 -72t-78 -48.5t-76.5 -31t-77.5 -16t-73 -6.5t-70 -1q-103 0 -185 34.5t-133 93t-78 131.5t-27 154z" />
<glyph unicode="'" horiz-adv-x="403" d="M31 1149l125 387h215l-187 -387h-153z" />
<glyph unicode="(" horiz-adv-x="894" d="M283 205q0 200 48 406.5t133 386.5t211.5 323.5t274.5 214.5l27 -82q-148 -74 -275 -284t-198.5 -483t-71.5 -537q0 -381 150 -603l-68 -59q-116 128 -173.5 314t-57.5 403z" />
<glyph unicode=")" horiz-adv-x="845" d="M-59 -430q148 74 274.5 283t198 482t71.5 539q0 382 -149 603l67 59q116 -128 174 -314t58 -403q0 -270 -81 -538t-235.5 -483t-351.5 -310z" />
<glyph unicode="*" horiz-adv-x="1054" d="M176 1026l223 129l-223 129l62 107l219 -127v276h131v-276l219 127l61 -107l-223 -129l223 -129l-61 -106l-219 127v-277h-131v277l-219 -127z" />
<glyph unicode="+" horiz-adv-x="1054" d="M109 420l49 229h262l55 250h232l-56 -250h260l-47 -229h-262l-55 -252h-232l56 252h-262z" />
<glyph unicode="," horiz-adv-x="442" d="M49 154q0 68 47.5 115.5t114.5 47.5q66 0 102.5 -43t36.5 -112q0 -97 -72.5 -216.5t-193.5 -203.5q-18 13 -18 35q0 25 16.5 50t36.5 42.5t36.5 43t16.5 50.5q0 23 -27 41q-96 63 -96 150z" />
<glyph unicode="-" horiz-adv-x="593" d="M39 455l37 161h409l-34 -161h-412z" />
<glyph unicode="." horiz-adv-x="538" d="M63 154q0 68 47.5 115.5t114.5 47.5q68 0 116 -48t48 -115t-48 -114.5t-116 -47.5q-67 0 -114.5 47t-47.5 115z" />
<glyph unicode="/" horiz-adv-x="636" d="M23 -512l434 2048h147l-434 -2048h-147z" />
<glyph unicode="0" horiz-adv-x="1118" d="M61 520q0 167 31.5 320t92.5 279.5t146 219.5t198.5 145t242.5 52q188 0 276.5 -135.5t88.5 -399.5q0 -103 -19.5 -217t-56 -228.5t-93.5 -217.5t-127 -182.5t-162.5 -126.5t-193.5 -47q-104 0 -179 24t-122.5 66.5t-75 112t-37.5 148t-10 187.5zM375 463 q0 -309 121 -309q84 0 156 86t118 226t72 313.5t26 353.5q0 70 -4 118.5t-15 92t-33.5 65t-57.5 21.5q-47 0 -105.5 -56t-114 -152t-98.5 -244t-55 -312q-10 -138 -10 -203z" />
<glyph unicode="1" horiz-adv-x="649" d="M43 0l270 1278h-194l24 94q112 0 233.5 31t287.5 129l-326 -1532h-295z" />
<glyph unicode="2" horiz-adv-x="1007" d="M-25 59q0 91 37.5 178.5t97 161t131.5 147.5t144 152t131.5 159.5t97 184.5t37.5 213q0 72 -39 120t-86 48q-96 0 -131 -41t-35 -125q0 -43 19.5 -85.5t58.5 -53.5q-78 -69 -157 -69q-64 0 -105 48.5t-41 135.5q0 43 14 84.5t46 81.5t79.5 69.5t120.5 47.5t162 18 q389 0 389 -330q0 -94 -31 -180.5t-84 -157t-118 -134.5t-138 -123t-138.5 -112t-126 -113t-93.5 -114q42 0 163 -16.5t206 -20.5q75 0 123.5 14.5t83.5 40t100 87.5q2 -33 2 -90q0 -81 -10 -134.5t-36 -95t-74.5 -60t-123.5 -18.5q-113 0 -259 37t-249 37q-21 0 -51 -10.5 t-63.5 -26.5t-46.5 -20q-7 40 -7 65z" />
<glyph unicode="3" horiz-adv-x="1052" d="M12 319q0 147 62.5 229.5t179.5 82.5q143 0 166 -105q-59 -5 -97.5 -28t-55 -61t-22 -71.5t-5.5 -80.5q0 -96 45.5 -131t136.5 -35q107 0 178.5 107.5t71.5 248.5q0 127 -65.5 231.5t-198.5 149.5q85 23 154 69.5t110 104t62.5 117t21.5 115.5q0 72 -33.5 116.5 t-95.5 44.5q-187 0 -187 -166q0 -43 19.5 -85.5t58.5 -53.5q-78 -69 -158 -69q-64 0 -104.5 48.5t-40.5 135.5q0 54 26.5 106t78 96.5t139 71.5t198.5 27q168 0 264.5 -87t96.5 -214q0 -106 -71.5 -208.5t-207.5 -170.5q128 -39 191 -128t63 -204q0 -93 -40.5 -188 t-108.5 -171t-168.5 -124.5t-210.5 -48.5q-40 0 -77 2.5t-84 11t-86.5 23t-78.5 39.5t-66 58.5t-44 83.5t-17 111z" />
<glyph unicode="4" horiz-adv-x="974" d="M16 563q22 67 77 184.5t101 214.5t83.5 222.5t37.5 228.5q0 66 -14 123q95 0 161 -51.5t66 -143.5q0 -90 -33.5 -182t-74.5 -153.5t-101 -148.5t-90 -142h320l166 780l303 41l-176 -821h131l-41 -152h-123l-119 -563h-295l121 563h-500z" />
<glyph unicode="5" horiz-adv-x="1058" d="M31 297q0 69 24 124.5t62.5 87.5t82.5 49t89 17q69 0 105 -24.5t48 -79.5q-88 -11 -136 -60t-48 -149q0 -84 53 -122t131 -38q81 0 138 65.5t81.5 160t24.5 204.5q0 67 -22.5 126.5t-75 101t-125.5 41.5q-124 0 -307 -115l168 817q38 -4 100 -12t97.5 -12t83 -7.5 t87.5 -3.5q164 0 332 66q4 -46 4 -68q0 -108 -56.5 -172.5t-168.5 -64.5q-76 0 -204 24.5t-148 26.5l-82 -371q134 64 254 64q91 0 161.5 -33.5t113.5 -92.5t65 -135.5t22 -166.5q0 -106 -36.5 -203.5t-105.5 -177t-179 -127t-246 -47.5q-66 0 -115 5t-103.5 23.5t-89 51 t-57 90t-22.5 137.5z" />
<glyph unicode="6" horiz-adv-x="1017" d="M33 395q0 49 2 76q12 187 47.5 347.5t96.5 293.5t144.5 226.5t196 145.5t246.5 52q109 0 172 -51t63 -117q0 -56 -46.5 -95.5t-135.5 -43.5q33 29 33 74q0 43 -29.5 76.5t-72.5 33.5q-17 0 -36.5 -3.5t-57 -23t-72.5 -53t-77 -100.5t-76 -156.5t-65 -231.5t-49 -317 q-10 -105 -10 -159q0 -75 12 -125t36 -75t52.5 -34.5t69.5 -9.5q64 0 128 68t104.5 175t40.5 214q0 49 -8 90t-34 74.5t-67 33.5q-104 0 -180 -155q-41 58 -41 118q0 88 85 146.5t204 58.5q70 0 125 -30t87 -79.5t48 -108t16 -120.5q0 -128 -44.5 -244t-119.5 -198 t-176.5 -130t-212.5 -48q-96 0 -167.5 22t-115 57.5t-70.5 89.5t-36.5 110t-9.5 126z" />
<glyph unicode="7" horiz-adv-x="950" d="M68 256q0 70 19 146t47.5 145t80.5 154.5t98.5 152.5t122.5 162t132 161t145 169q-89 12 -172 12q-294 0 -426 -146q-17 73 -17 119q0 103 66 154t213 51h672q-124 -185 -352 -545.5t-265 -447.5q-65 -147 -65 -264q0 -62 22.5 -108t77.5 -91q-30 -80 -188 -80 q-103 0 -157 55t-54 201z" />
<glyph unicode="8" horiz-adv-x="1021" d="M-16 401q0 149 95 276t273 177q-88 51 -131 123.5t-43 155.5q0 74 34 146t92.5 128.5t145.5 91.5t185 35q185 0 286 -85t101 -212q0 -107 -75 -211.5t-212 -171.5q125 -38 186.5 -123.5t61.5 -195.5q0 -94 -43 -190.5t-116 -175.5t-181 -129t-227 -50q-102 0 -185.5 34.5 t-136.5 92t-81.5 131t-28.5 153.5zM281 324q0 -91 37.5 -148t107.5 -57q101 0 168.5 107.5t67.5 248.5q0 90 -32.5 171.5t-97.5 137.5q-81 -54 -139.5 -135.5t-85 -164t-26.5 -160.5zM446 1171q0 -72 27.5 -137.5t81.5 -109.5q97 64 152 169t55 201q0 68 -28 108t-79 40 q-95 0 -152 -80.5t-57 -190.5z" />
<glyph unicode="9" horiz-adv-x="1001" d="M55 164q0 53 45.5 91t132.5 42q-28 -28 -28 -70q0 -44 30 -79t74 -35q17 0 37.5 3.5t59.5 23t75 52.5t78.5 100t76 156.5t62 231.5t41.5 317q4 78 4 107q0 93 -12 153.5t-37.5 91t-55.5 41.5t-75 11q-65 0 -125.5 -66.5t-97.5 -170t-37 -208.5q0 -36 5 -70t17 -67.5 t36 -53.5t57 -20q61 0 103.5 27.5t68.5 95.5q43 -52 43 -102q0 -77 -80.5 -132.5t-194.5 -55.5q-73 0 -130.5 32.5t-91 85.5t-50 114.5t-16.5 125.5q0 167 70 305t191.5 216.5t268.5 78.5q92 0 162.5 -26t114 -68.5t70.5 -106t37.5 -131t10.5 -149.5q0 -308 -82.5 -548.5 t-241 -378.5t-370.5 -138q-112 0 -179 53.5t-67 120.5z" />
<glyph unicode=":" horiz-adv-x="546" d="M84 276q0 68 47.5 116t114.5 48q68 0 116 -48t48 -116q0 -67 -48 -114t-116 -47t-115 47t-47 114zM186 768q0 68 47.5 116t114.5 48q68 0 116 -48t48 -116q0 -67 -48 -114.5t-116 -47.5t-115 47t-47 115z" />
<glyph unicode=";" horiz-adv-x="565" d="M94 186q0 68 47.5 116t114.5 48q66 0 102.5 -43t36.5 -112q0 -97 -72.5 -216.5t-193.5 -203.5q-18 13 -18 35q0 25 16.5 50t36.5 42.5t36.5 43t16.5 50.5q0 23 -27 41q-96 63 -96 149zM193 678q0 68 47 116t114 48q68 0 116 -48t48 -116q0 -67 -48 -114.5t-116 -47.5 q-67 0 -114 47t-47 115z" />
<glyph unicode="&#x3c;" horiz-adv-x="735" d="M41 487l18 84l629 308l-20 -113l-494 -246l397 -196l-24 -117z" />
<glyph unicode="=" horiz-adv-x="1054" d="M66 207l49 229h753l-47 -229h-755zM156 647l49 230h753l-47 -230h-755z" />
<glyph unicode="&#x3e;" horiz-adv-x="704" d="M31 207l28 117l492 196l-397 246l18 113l504 -308l-23 -110z" />
<glyph unicode="?" horiz-adv-x="903" d="M98 164q0 67 48 114.5t116 47.5t115 -47t47 -115t-47.5 -116t-114.5 -48q-68 0 -116 48t-48 116zM113 1104q0 55 24.5 110.5t73.5 106t135.5 82t196.5 31.5q102 0 169 -18.5t100.5 -55t45.5 -77t12 -97.5q0 -81 -21.5 -147.5t-58.5 -113.5t-82 -88t-94 -79t-93.5 -77 t-83 -92t-58.5 -114h-135q0 58 20.5 113t53.5 99.5t72.5 88.5t79 88.5t72.5 91t53.5 105t20.5 121.5q0 71 -32 106t-80 35q-62 0 -113 -48.5t-51 -121.5q0 -42 19.5 -83t58.5 -52q-26 -42 -66 -64t-84 -22q-64 0 -109.5 45t-45.5 127z" />
<glyph unicode="@" horiz-adv-x="1150" d="M-16 311q0 166 46.5 308t118.5 235.5t161.5 160.5t173.5 96.5t155 29.5q39 0 72.5 -3t72 -11t69.5 -21.5t60 -36.5t49 -53.5t32 -74t12 -97.5q0 -149 -51 -281t-132.5 -208t-169.5 -76q-43 0 -69 16q-21 -20 -66 -33.5t-94 -13.5q-46 0 -77.5 52t-31.5 108 q0 31 10.5 85.5t33.5 123t54.5 128t79 100t101.5 40.5q44 0 68 -35l8 31l114 -13l-92 -393q-8 -32 -8 -47q0 -39 27 -39q39 0 77 92.5t59 197.5t21 165q0 39 -8 66.5t-28.5 51.5t-62.5 36t-105 12q-85 0 -167.5 -52.5t-146 -141t-102.5 -216t-39 -266.5q0 -102 55 -165 t154 -63q198 0 293 95q26 26 47 26q19 0 49 -24q27 -22 27 -35q0 -6 -11 -23q-76 -114 -206 -168.5t-263 -54.5q-69 0 -132.5 22t-118 66.5t-87 122t-32.5 178.5zM449 434q0 -38 13 -51.5t60 -13.5q14 0 31 10v20q0 27 6 43l86 342q-15 15 -43 15q-33 0 -63 -41.5 t-49 -100.5t-30 -119.5t-11 -103.5z" />
<glyph unicode="A" horiz-adv-x="1368" d="M18 696q0 61 55.5 116t148 87.5t196.5 32.5q54 0 121 -6q81 129 166 236.5t177 193.5t187.5 134t183.5 48t164 -31l-321 -1507h-295l157 743q-151 66 -276 74q-116 -249 -190 -511.5t-74 -422.5q0 -36 4 -59t9 -30.5t9.5 -13.5t5.5 -11q-118 7 -163 24q-98 36 -109 165 q-2 19 -2 40q0 131 83.5 359t217.5 460q-100 -7 -160 -30.5t-80 -75.5q8 0 17.5 -21.5t9.5 -42.5q0 -35 -31.5 -57.5t-93.5 -22.5q-49 0 -83 32.5t-34 96.5zM723 903q146 -27 254 -69l119 557q-176 -96 -373 -488z" />
<glyph unicode="B" horiz-adv-x="1300" d="M12 1004q0 132 108 256.5t275 200t336 75.5q227 0 346 -95.5t119 -232.5q0 -92 -54 -179.5t-151 -143.5q120 -24 178 -114.5t58 -219.5q0 -98 -32.5 -202.5t-86.5 -189.5t-131 -139.5t-158 -54.5q-43 0 -73 2t-64 10.5t-55 23t-35 41.5t-14 64q0 56 26 130 q26 -41 65.5 -57.5t71.5 -16.5q54 0 102 58t74.5 145t26.5 174q0 110 -45.5 181t-140.5 71q-38 0 -103 -7l-168 -784h-294l278 1303l303 40l-98 -454h14q81 0 149.5 52.5t105 129.5t36.5 156q0 94 -56 154.5t-169 60.5q-251 0 -402 -133.5t-151 -364.5q0 -46 6.5 -76 t14 -44.5t7.5 -18.5q-110 0 -164.5 46t-54.5 153z" />
<glyph unicode="C" horiz-adv-x="1017" d="M49 510q0 100 9.5 197.5t32.5 200.5t58 193t90 171t124.5 139t166 91.5t209.5 33.5q59 0 110.5 -9t97 -30t78.5 -52.5t52 -78t19 -104.5q0 -87 -35 -138t-109 -51q-70 0 -116 53q35 10 62.5 67t27.5 101q0 14 -2 28.5t-10.5 37t-22.5 39t-42 29t-65 12.5 q-90 0 -170 -86.5t-131.5 -219.5t-81.5 -286.5t-30 -292.5q0 -106 11 -174t41 -117.5t82.5 -70.5t135.5 -21q122 0 225 50.5t158 146.5l47 -21q-31 -86 -83 -152t-109.5 -104.5t-127 -62.5t-129.5 -32.5t-124 -8.5q-67 0 -127 13.5t-120.5 50t-104 93t-70.5 150.5t-27 215z " />
<glyph unicode="D" horiz-adv-x="1357" d="M12 1004q0 132 108 256.5t275 200t336 75.5q138 0 243 -30.5t169.5 -80.5t105.5 -123t56.5 -150t15.5 -169q0 -260 -78 -493.5t-209.5 -375t-279.5 -141.5q-124 0 -250 109l-17 -82h-294l278 1303l303 40l-246 -1148q55 -41 117 -41q88 0 164 83t125 213t76.5 285 t27.5 305q0 82 -6.5 141t-24.5 110.5t-49.5 83t-81.5 49.5t-120 18q-251 0 -402 -133.5t-151 -364.5q0 -46 6.5 -76t14 -44.5t7.5 -18.5q-110 0 -164.5 46t-54.5 153z" />
<glyph unicode="E" horiz-adv-x="940" d="M23 401q0 102 39.5 193.5t125.5 163.5t205 96q-101 55 -152 137t-51 174q0 71 31 137t87 118.5t144 84t193 31.5q74 0 139.5 -15.5t120 -46.5t86 -85.5t31.5 -126.5q0 -87 -34.5 -138t-108.5 -51q-71 0 -117 53q35 10 62.5 67t27.5 101q0 15 -1 29t-9 38.5t-21 41.5 t-40 30t-64 13q-110 0 -180 -73.5t-70 -178.5q0 -96 66.5 -186.5t203.5 -151.5q-183 -75 -269.5 -185.5t-86.5 -226.5q0 -112 71 -192t169 -80q115 0 189.5 47.5t133.5 149.5l47 -21q-131 -360 -545 -360q-103 0 -185 34.5t-133 93t-78 131.5t-27 154z" />
<glyph unicode="F" horiz-adv-x="1013" d="M18 1004q0 84 23.5 160t77 144.5t133 118.5t199 79.5t266.5 29.5q35 0 152.5 -12.5t187.5 -12.5q105 0 184 25q-5 -14 -13.5 -45t-14.5 -50t-20 -46.5t-31 -45t-47 -34.5t-68 -25q-100 0 -287 39l-101 -471h316l-41 -151h-307l-152 -707h-295l295 1368q-63 -3 -109 -24 t-82.5 -68t-55.5 -130t-19 -202q0 -46 6.5 -76t14.5 -44.5t8 -18.5q-110 0 -165 46t-55 153z" />
<glyph unicode="G" horiz-adv-x="1183" d="M39 748q0 118 31 232t93 214.5t147.5 176.5t203 120.5t250.5 44.5q74 0 140 -15.5t121 -46.5t87.5 -85.5t32.5 -126.5q0 -87 -35 -138t-109 -51q-95 0 -141 53q35 10 62.5 67t27.5 101q0 14 -2 28.5t-10.5 37t-22.5 39t-41.5 29t-64.5 12.5q-109 0 -216 -108.5 t-173 -274.5t-66 -326q0 -148 59 -243t179 -95q117 0 174 76l88 387h264l-168 -770q-27 -125 -64 -213t-97 -158t-150 -104.5t-213 -34.5q-137 0 -211 83.5t-74 199.5q0 112 67.5 196t182.5 84q31 0 53 -1.5t52.5 -9t49 -21.5t32.5 -40.5t14 -64.5q0 -36 -12 -82 q-37 31 -64 42t-59 11q-67 0 -105.5 -46.5t-38.5 -108.5q0 -58 34 -99t95 -41q37 0 64.5 10t54 36.5t48 77.5t38.5 128l82 367q-54 -28 -113.5 -46.5t-90.5 -23t-46 -4.5q-121 0 -209 41.5t-137 116t-71.5 165t-22.5 202.5z" />
<glyph unicode="H" horiz-adv-x="1292" d="M12 1004q0 132 108 256.5t275 200t336 75.5q28 0 82 -4l-133 -623q157 27 205 27q31 0 45 -2l127 598h295l-326 -1532h-295l162 760q-56 20 -131 20q-45 0 -111 -8l-164 -772h-294l296 1393q-137 -58 -211.5 -173t-74.5 -276q0 -46 6.5 -76t14 -44.5t7.5 -18.5 q-110 0 -164.5 46t-54.5 153z" />
<glyph unicode="I" horiz-adv-x="768" d="M12 1004q0 132 108 256.5t275 200t336 75.5q28 0 82 -4l-326 -1532h-294l296 1391q-136 -57 -211 -171t-75 -276q0 -46 6.5 -76t14 -44.5t7.5 -18.5q-110 0 -164.5 46t-54.5 153z" />
<glyph unicode="J" horiz-adv-x="1097" d="M35 -135q0 111 67 192.5t183 81.5q31 0 53 -1.5t52 -9t49 -21.5t32.5 -40.5t13.5 -64.5q0 -36 -12 -82q-37 31 -64 42t-59 11q-67 0 -105 -45t-38 -106q0 -72 43 -108t96 -36q50 0 82 18.5t61 74.5t52 159l321 1463q-136 -57 -212.5 -172.5t-76.5 -276.5q0 -46 6.5 -76 t14.5 -44.5t8 -18.5q-110 0 -164.5 46t-54.5 153q0 132 108 256.5t275 200t336 75.5h82l-307 -1454q-26 -123 -65.5 -212t-102 -157.5t-155.5 -102.5t-216 -34q-143 0 -223 79.5t-80 209.5z" />
<glyph unicode="K" horiz-adv-x="1230" d="M12 1004q0 132 108 256.5t275 200t336 75.5q28 0 82 -4l-135 -627q61 82 175 234t203 270t89 117h215l-572 -658q27 4 74 4q140 0 197 -58t57 -161q0 -89 -50 -273.5t-50 -244.5q0 -46 22 -84t58 -51q-120 -35 -203 -35q-160 0 -160 137q0 65 54.5 261.5t54.5 277.5 q0 137 -123 137q-32 0 -68 -8l-164 -770h-294l296 1393q-137 -58 -211.5 -173t-74.5 -276q0 -46 6.5 -76t14 -44.5t7.5 -18.5q-110 0 -164.5 46t-54.5 153z" />
<glyph unicode="L" horiz-adv-x="802" d="M12 983q0 99 64.5 197.5t166 171.5t232 118.5t256.5 45.5q15 0 82 -5l-315 -1470q57 -13 126.5 -45.5t133.5 -68.5t132.5 -70.5t145.5 -57t150 -22.5q94 0 172 33q-15 -148 -72.5 -235t-140.5 -87q-80 0 -170.5 48t-175.5 116t-172.5 136.5t-191.5 116.5t-204 48 q-31 0 -47 -2l305 1419q-136 -57 -211 -171t-75 -275q0 -46 6.5 -76t14 -45t7.5 -19q-110 0 -164.5 46t-54.5 153z" />
<glyph unicode="M" horiz-adv-x="1607" d="M76 1004q0 91 59.5 187t153 169.5t215 120.5t237.5 47q75 0 142 -21v-1179l448 1179h322l-322 -1507h-295l205 969l-389 -969h-281v874l-270 -874h-164l459 1407q-156 -50 -243 -169.5t-87 -293.5q0 -46 6.5 -76t14.5 -44.5t8 -18.5q-110 0 -164.5 46t-54.5 153z" />
<glyph unicode="N" horiz-adv-x="1437" d="M12 1004q0 132 108 256.5t275 200t336 75.5q44 0 74 -7t51 -27.5t33 -45.5t18.5 -73t8.5 -97.5t2 -130.5q0 -109 -11.5 -347t-11.5 -335q0 -153 20 -223l273 1282h295l-326 -1532h-295q-67 0 -93 109.5t-26 308.5q0 99 7.5 322t7.5 331q0 125 -4 182l-267 -1253h-294 l296 1393q-137 -58 -211.5 -173t-74.5 -276q0 -46 6.5 -76t14 -44.5t7.5 -18.5q-110 0 -164.5 46t-54.5 153z" />
<glyph unicode="O" d="M12 1004q0 132 108 256.5t275 200t336 75.5q296 0 428.5 -139.5t132.5 -415.5q0 -121 -28 -257t-82.5 -267.5t-127 -237.5t-170.5 -171.5t-204 -65.5q-206 0 -313 108t-107 354q0 119 16 242.5t51.5 245t85 216.5t124 153.5t161.5 58.5q38 0 97 -17 q-130 -171 -203.5 -392t-73.5 -466q0 -143 41 -237t121 -94q85 0 173.5 137t145 341t56.5 392q0 74 -6 130.5t-25 113t-51 93t-87 59t-130 22.5q-251 0 -402 -133.5t-151 -364.5q0 -46 6.5 -76t14 -44.5t7.5 -18.5q-110 0 -164.5 46t-54.5 153z" />
<glyph unicode="P" horiz-adv-x="1173" d="M12 1004q0 132 108 256.5t275 200t336 75.5q122 0 216.5 -33t151.5 -90t86 -128t29 -152q0 -99 -41.5 -196t-115 -176t-187.5 -128t-247 -49h-11l-125 -584h-294l278 1303l303 40l-145 -684q74 6 142 55t114.5 121.5t74 159.5t27.5 168q0 123 -63 201t-191 78 q-249 0 -389.5 -132.5t-140.5 -365.5q0 -46 6.5 -76t14 -44.5t7.5 -18.5q-110 0 -164.5 46t-54.5 153z" />
<glyph unicode="Q" d="M12 1004q0 132 108 256.5t275 200t336 75.5q296 0 428.5 -139.5t132.5 -415.5q0 -229 -95 -485.5t-249 -397.5q35 -50 63.5 -80t77 -53.5t107.5 -23.5q13 0 45 4q-37 -100 -88 -138t-123 -38q-61 0 -106 18t-73.5 53.5t-45 70t-31.5 85.5q-54 -14 -94 -14 q-440 0 -440 473q0 116 18 240t55.5 243t88.5 213t124 151.5t156 57.5q36 0 92 -17q-130 -171 -203 -390.5t-73 -465.5q0 -101 22 -184q71 19 123 19q100 0 172 -62q99 128 169.5 346.5t70.5 417.5q0 74 -6 130.5t-25 113t-51 93t-87 59t-130 22.5q-251 0 -402 -133.5 t-151 -364.5q0 -46 6.5 -76t14 -44.5t7.5 -18.5q-110 0 -164.5 46t-54.5 153zM543 240q44 -86 116 -86q29 0 54 14q-43 78 -121 78q-22 0 -49 -6z" />
<glyph unicode="R" horiz-adv-x="1230" d="M12 1004q0 132 108 256.5t275 200t336 75.5q117 0 208.5 -27.5t146 -74t82.5 -104t28 -122.5q0 -97 -59 -193.5t-162 -156.5q141 -41 141 -205q0 -89 -50 -274.5t-50 -243.5q0 -46 22 -84t58 -51q-120 -35 -203 -35q-160 0 -160 137q0 65 53.5 261.5t53.5 277.5 q0 139 -123 139q-33 0 -66 -8l-164 -772h-294l278 1303l303 40l-102 -475h18q81 0 149.5 57t105 139t36.5 163q0 94 -56 154.5t-169 60.5q-251 0 -402 -133.5t-151 -364.5q0 -46 6.5 -76t14 -44.5t7.5 -18.5q-110 0 -164.5 46t-54.5 153z" />
<glyph unicode="S" horiz-adv-x="1167" d="M70 319q0 138 87.5 216.5t213.5 78.5q144 0 166 -104q-124 -10 -182 -64.5t-58 -160.5q0 -65 31.5 -111t76 -66t95.5 -20q77 0 129.5 42.5t74 106.5t21.5 144q0 78 -24.5 147.5t-63.5 121.5t-86 100.5t-94 93.5t-86 90.5t-63.5 102t-24.5 118.5q0 104 71 193t182.5 138.5 t233.5 49.5q28 0 53.5 -1.5t62 -7.5t66 -15.5t61 -28.5t53 -44t35 -63.5t13.5 -85.5q0 -90 -46 -148.5t-124 -58.5q-55 0 -92 43q41 24 66.5 74.5t25.5 102.5q0 60 -36 98.5t-113 38.5q-86 0 -138.5 -47.5t-52.5 -130.5q0 -65 25.5 -121t66 -98.5t89.5 -84.5t98.5 -89.5 t90 -101.5t66 -131.5t25.5 -170.5q0 -217 -147.5 -346t-395.5 -129q-40 0 -77 2.5t-84 11t-86 23t-78 39.5t-66 58.5t-44 83.5t-17 111z" />
<glyph unicode="T" horiz-adv-x="985" d="M12 1001q0 106 39 198.5t119.5 169t219 121t321.5 44.5q27 0 219 -17.5t307 -17.5q162 0 236 31q-6 -16 -15.5 -59t-19.5 -72.5t-28.5 -63t-51.5 -51.5t-80 -18q-26 0 -58 2.5t-56.5 5.5t-66 9.5t-62 10t-70 13t-66.5 12.5l-283 -1319h-294l290 1354q-61 0 -110 -6.5 t-97.5 -23t-83.5 -47t-62.5 -75t-41.5 -110t-14 -150.5q0 -46 6.5 -76t14 -44.5t7.5 -18.5q-110 0 -164.5 45.5t-54.5 152.5z" />
<glyph unicode="U" horiz-adv-x="1388" d="M12 1004q0 132 108 256.5t275 200t336 75.5q117 0 154 -10q-137 -180 -252 -494.5t-115 -546.5q0 -143 41 -237t121 -94q112 0 199 157l262 1221h293l-326 -1532h-295l23 106q-116 -104 -199 -104q-188 0 -283.5 98.5t-95.5 335.5q0 109 21 242.5t59.5 272t103 266.5 t142.5 206q-179 -42 -280 -166.5t-101 -312.5q0 -46 6.5 -76t14 -44.5t7.5 -18.5q-110 0 -164.5 46t-54.5 153z" />
<glyph unicode="V" horiz-adv-x="1259" d="M12 1004q0 132 108 256.5t275 200t336 75.5q28 0 82 -4l18 -1260l431 1254h143l-569 -1526h-295v1399q-166 -52 -252 -168.5t-86 -286.5q0 -46 6.5 -76t14 -44.5t7.5 -18.5q-110 0 -164.5 46t-54.5 153z" />
<glyph unicode="W" horiz-adv-x="1986" d="M12 1004q0 132 108 256.5t275 200t336 75.5q28 0 82 -4l18 -1260l431 1254h260v-1254l448 1254h144l-570 -1526h-295v1042l-413 -1042h-295v1399q-166 -52 -252 -168.5t-86 -286.5q0 -46 6.5 -76t14 -44.5t7.5 -18.5q-110 0 -164.5 46t-54.5 153z" />
<glyph unicode="X" horiz-adv-x="1269" d="M12 1004q0 132 108 256.5t275 200t336 75.5q28 0 82 -4l88 -426l238 420h143l-344 -596l192 -930h-325l-109 512l-297 -512h-125l385 680l-151 719q-144 -53 -224.5 -170.5t-80.5 -284.5q0 -46 6.5 -76t14 -44.5t7.5 -18.5q-110 0 -164.5 46t-54.5 153z" />
<glyph unicode="Y" horiz-adv-x="1269" d="M12 1004q0 132 108 256.5t275 200t336 75.5q28 0 82 -4l178 -733l303 727h136l-398 -895l-135 -631h-328l136 631l-197 768q-144 -53 -224.5 -170.5t-80.5 -284.5q0 -46 6.5 -76t14 -44.5t7.5 -18.5q-110 0 -164.5 46t-54.5 153z" />
<glyph unicode="Z" horiz-adv-x="1085" d="M23 0l729 1450q-94 4 -205 4q-63 0 -115.5 -10t-52.5 -35q14 0 24.5 -17t10.5 -42q0 -123 -129 -123q-42 0 -69.5 34.5t-27.5 84.5q0 83 61.5 136.5t178.5 53.5h702l-712 -1417q94 -4 297 -4q112 0 112 45q-14 0 -25 16t-11 41q0 66 37 95.5t94 29.5q42 0 69 -34.5 t27 -84.5q0 -85 -70 -154t-186 -69h-739z" />
<glyph unicode="[" horiz-adv-x="819" d="M-49 -512l434 2048h395l-26 -125h-248l-381 -1796h248l-27 -127h-395z" />
<glyph unicode="\" horiz-adv-x="741" d="M86 1536h147l435 -2048h-148z" />
<glyph unicode="]" horiz-adv-x="819" d="M-49 -512l26 125h248l381 1796h-248l27 127h395l-434 -2048h-395z" />
<glyph unicode="^" horiz-adv-x="862" d="M102 1149l435 387h43l122 -387h-65l-123 164l-321 -164h-91z" />
<glyph unicode="_" horiz-adv-x="909" d="M74 0l37 162h716l-34 -162h-719z" />
<glyph unicode="`" horiz-adv-x="411" d="M49 1536h215l60 -387h-154z" />
<glyph unicode="a" horiz-adv-x="1030" d="M-37 248q0 112 16 216.5t55.5 207.5t99 179.5t154 123.5t212.5 47q76 0 137 -51l12 53h295l-147 -696q-9 -52 -9 -64q0 -37 22.5 -57.5t80.5 -20.5q29 0 67 20.5t66 43.5t73.5 62.5t63.5 54.5h70q-13 -13 -56.5 -58.5t-76.5 -79.5t-84.5 -80t-93 -76t-89.5 -51.5 t-86 -21.5q-209 0 -249 156q-122 -168 -279 -168q-71 0 -122.5 23t-79 62t-40 82.5t-12.5 92.5zM240 303q0 -145 118 -145q61 0 131 102q2 24 13 68l114 542q-42 37 -100 37q-74 0 -139 -93t-101 -232t-36 -279z" />
<glyph unicode="b" horiz-adv-x="880" d="M-37 227q0 45 12 101l228 1065l303 41l-98 -465q79 59 176 59q71 0 123.5 -23t81 -62t42 -83t13.5 -92q0 -99 -20.5 -204t-65.5 -207.5t-107 -183t-153 -130t-197 -49.5q-79 0 -139 12t-105.5 38.5t-69.5 72t-24 110.5zM254 215q0 -44 21 -60t69 -16q59 0 112.5 74.5 t86 178.5t52 203t19.5 159q0 83 -34.5 117t-81.5 34q-18 0 -58.5 -9t-52.5 -19l-117 -549q-16 -78 -16 -113z" />
<glyph unicode="c" horiz-adv-x="737" d="M-27 336q0 95 16 187.5t55.5 185.5t98 163t151 114t206.5 44q225 0 225 -141q0 -34 -10 -68q-22 13 -51 13q-22 0 -66 -13q10 38 10 58q0 69 -76 69q-81 0 -148 -94t-100.5 -219.5t-33.5 -241.5q0 -104 31.5 -161.5t117.5 -57.5q186 0 357 193h69q-17 -19 -51 -64.5 t-60.5 -80.5t-74.5 -79t-98 -73t-125.5 -49.5t-161.5 -20.5q-281 0 -281 336z" />
<glyph unicode="d" horiz-adv-x="1044" d="M-37 248q0 112 16 216.5t55.5 207.5t99 179.5t154 123.5t212.5 47q76 0 137 -51l90 422l303 41l-233 -1106q-11 -63 -11 -66q0 -37 23 -56.5t80 -19.5q29 0 67 20.5t66 43.5t73.5 62.5t63.5 54.5h70q-13 -13 -56.5 -58.5t-76.5 -79.5t-84.5 -80t-93 -76t-89.5 -51.5 t-86 -21.5q-207 0 -247 156q-122 -168 -279 -168q-71 0 -122.5 23t-79 62t-40 82.5t-12.5 92.5zM240 303q0 -145 118 -145q61 0 131 102q2 24 13 68l114 542q-42 37 -100 37q-74 0 -139 -93t-101 -232t-36 -279z" />
<glyph unicode="e" horiz-adv-x="727" d="M-37 326q0 69 10 143.5t31.5 157t60.5 155.5t90 132t126 93.5t165 34.5q128 0 195.5 -53.5t67.5 -159.5q0 -89 -44.5 -166t-114.5 -127.5t-148.5 -82t-155.5 -41.5q-6 -50 -6 -88q0 -93 49 -135t119 -42q79 0 185.5 80.5t158.5 190.5h92q-37 -66 -79.5 -124.5 t-98.5 -113.5t-116 -94t-133.5 -62.5t-150.5 -23.5q-142 0 -222.5 93.5t-80.5 232.5zM262 510q90 1 165.5 48t116.5 117.5t42 143.5q0 27 -4.5 50t-22 44t-45.5 21q-54 0 -106.5 -68t-87.5 -159.5t-58 -196.5z" />
<glyph unicode="f" horiz-adv-x="555" d="M-414 -291q0 55 19 99t47.5 73t79 55.5t94.5 42.5t113 37l247 1170q18 84 50 148t68.5 101.5t82.5 60.5t86.5 30.5t85.5 7.5q97 0 169.5 -62t72.5 -159q0 -47 -6 -84h-97q4 40 4 55q0 34 -22 52t-55 18q-43 0 -83.5 -38t-60.5 -130l-35 -162h150l-14 -82h-152l-235 -1106 q-75 -348 -367 -348q-97 0 -169.5 62t-72.5 159zM-301 -262q0 -23 25 -45.5t57 -22.5q81 0 117 160l26 119q-108 -36 -166.5 -85t-58.5 -126z" />
<glyph unicode="g" horiz-adv-x="1013" d="M-51 270q0 76 10.5 154.5t32.5 165.5t61.5 162.5t93.5 137t133.5 97t174.5 35.5q54 0 96 -26.5t65 -69.5l23 98h295l-193 -907q109 57 188.5 131t127.5 182l-8 -162q-10 -48 -39.5 -89t-77 -73.5t-98 -57t-117.5 -48.5l-35 -164q-72 -348 -369 -348q-99 0 -164 51.5 t-65 147.5q0 41 11 75.5t35 63t51 50.5t69.5 43t78.5 36t89 35l20 92q-109 -98 -235 -98q-70 0 -122 27t-79.5 71.5t-40 91t-12.5 96.5zM197 -285q0 -24 19 -45.5t50 -21.5q33 0 67 48t52 134l12 61q-97 -37 -148.5 -78.5t-51.5 -97.5zM201 309q0 -70 38.5 -99.5 t110.5 -29.5q55 0 123 72l121 567q-23 43 -55.5 65.5t-61.5 22.5q-57 0 -105 -45.5t-78.5 -114t-52.5 -152t-31 -156.5t-9 -130z" />
<glyph unicode="h" horiz-adv-x="1054" d="M-90 0l297 1393l303 41l-111 -519q155 109 267 109q86 0 160.5 -78t74.5 -178q0 -33 -4 -49l-84 -391q-10 -42 -10 -66q0 -37 22.5 -56.5t79.5 -19.5q29 0 67.5 20.5t66.5 43.5t73.5 63t63.5 54h69q-14 -14 -57 -59t-76 -79t-84 -80t-93 -76t-89.5 -51.5t-85.5 -21.5 q-254 0 -254 223q0 47 12 105l78 368q6 27 6 54q0 55 -26 87.5t-68 32.5q-66 0 -127 -43l-176 -827h-295z" />
<glyph unicode="i" horiz-adv-x="550" d="M-29 223q0 42 13 105l147 696h295l-147 -696q-9 -52 -9 -64q0 -37 22.5 -57.5t80.5 -20.5q29 0 67 20.5t66 43.5t73.5 62.5t63.5 54.5h70q-13 -13 -56.5 -58.5t-76.5 -79.5t-84.5 -80t-93 -76t-89.5 -51.5t-86 -21.5q-122 0 -189 55t-67 168zM170 1294q0 68 47.5 116 t114.5 48q68 0 116 -48t48 -116q0 -67 -48 -114t-116 -47t-115 47t-47 114z" />
<glyph unicode="j" horiz-adv-x="452" d="M-457 -291q0 55 19.5 99t48 73.5t79 56t95 42.5t111.5 36l215 1008h295l-191 -897q223 107 313 303l-8 -162q-19 -89 -102.5 -142.5t-222.5 -92.5l-41 -197q-72 -348 -369 -348q-97 0 -169.5 62t-72.5 159zM-344 -262q0 -23 25 -45.5t57 -22.5q36 0 69 38.5t50 121.5 l24 119q-108 -36 -166.5 -85t-58.5 -126zM133 1298q0 68 47.5 116t114.5 48t115.5 -48t48.5 -116q0 -67 -48 -114t-116 -47t-115 47t-47 114z" />
<glyph unicode="k" horiz-adv-x="1001" d="M-84 0l297 1393l303 41l-154 -717q71 57 168 132.5t162.5 125.5t65.5 49h221l-416 -281q31 7 53 7q86 0 162 -77.5t76 -176.5q0 -28 -6 -52l-29 -116q-10 -38 -10 -66q0 -37 22.5 -56.5t79.5 -19.5q37 0 75 28.5t86.5 80t74.5 72.5h70q-20 -20 -66.5 -73t-88.5 -98 t-94 -92.5t-104.5 -75.5t-97.5 -28q-122 0 -189 54.5t-67 164.5q0 54 14 109l23 94q6 27 6 53q0 55 -26 88t-68 33q-64 0 -131 -45l-117 -551h-295z" />
<glyph unicode="l" horiz-adv-x="585" d="M-12 223q0 47 12 105l227 1065l303 41l-235 -1106q-10 -52 -10 -66q0 -37 22.5 -56.5t79.5 -19.5q29 0 67 20.5t66 43.5t73.5 62.5t63.5 54.5h70q-14 -14 -57 -59t-76 -79t-84 -80t-93 -76t-89.5 -51.5t-85.5 -21.5q-122 0 -188 55t-66 168z" />
<glyph unicode="m" horiz-adv-x="1523" d="M-88 0l217 1024h295l-23 -109q151 109 265 109q57 0 112.5 -37.5t89.5 -97.5q169 135 299 135q87 0 161.5 -78t74.5 -180q0 -15 -4 -47l-84 -391q-10 -42 -10 -76q0 -84 84 -84q55 0 113 63.5t102 145.5h96q-14 -17 -53 -65.5t-67.5 -82.5t-73 -81t-81.5 -76t-81 -50.5 t-82 -21.5q-254 0 -254 223q0 47 12 105l78 368q6 27 6 54q0 55 -26 87.5t-68 32.5q-63 0 -119 -36q10 -42 10 -72q0 -15 -4 -43l-152 -719h-296l147 696q6 27 6 54q0 55 -26 87.5t-68 32.5q-64 0 -125 -43l-176 -827h-295z" />
<glyph unicode="n" horiz-adv-x="1030" d="M-74 0l217 1024h295l-24 -111q153 111 268 111q86 0 161 -78t75 -178q0 -29 -5 -49l-84 -391q-10 -38 -10 -66q0 -37 23 -56.5t80 -19.5q37 0 63.5 15t67 55t63.5 59h70q-19 -19 -62 -67.5t-78.5 -85.5t-81.5 -77t-94.5 -62.5t-93.5 -22.5q-254 0 -254 223q0 42 13 105 l77 368q6 27 6 54q0 55 -26 87.5t-68 32.5q-65 0 -129 -43l-174 -827h-295z" />
<glyph unicode="o" horiz-adv-x="856" d="M-14 324q0 183 44 324t119.5 226t170.5 127.5t204 42.5q240 0 248 -301q18 -18 59 -18q42 0 78 17.5t73.5 44.5t64.5 38l8 -43q-47 -60 -123.5 -107.5t-165.5 -72.5q-14 -149 -60 -269t-111.5 -193.5t-141 -112.5t-154.5 -39q-166 0 -239.5 77.5t-73.5 258.5zM258 342 q0 -87 35.5 -121.5t101.5 -34.5q45 0 83 33.5t64.5 90.5t44 125.5t27.5 146.5q-42 0 -64 26.5t-22 65.5q0 46 25 87t65 56q-9 107 -86 107q-68 0 -123.5 -67t-86.5 -164t-47.5 -190t-16.5 -161z" />
<glyph unicode="p" horiz-adv-x="931" d="M-197 -512l326 1536h295l-8 -39q69 37 143 37q163 0 238 -66t75 -221q0 -63 -12 -143q-84 -590 -448 -590q-98 0 -193 61l-106 -501zM246 190q48 -36 133 -36q52 0 87.5 36t66 123.5t65.5 253.5q27 135 27 207q0 86 -29.5 117t-85.5 31q-55 0 -117 -43z" />
<glyph unicode="q" horiz-adv-x="974" d="M-29 225q0 232 71.5 416t190.5 282.5t261 98.5q122 0 159 -55l13 57h295l-312 -1462l-309 -74l162 762q-146 -242 -303 -242q-107 0 -167.5 54t-60.5 163zM229 291q0 -70 14 -103.5t54 -33.5q47 0 103 58t128 165l72 340q18 92 18 129q0 44 -18.5 65t-60.5 21 q-76 0 -149 -98t-117 -247t-44 -296z" />
<glyph unicode="r" horiz-adv-x="804" d="M-66 0l218 1024h294l-22 -102q132 102 242 102q68 0 107.5 -36t39.5 -95q0 -60 -42 -110t-112 -50q-32 0 -50 14t-24 33.5t-9 39.5t-10.5 34t-24.5 14q-43 0 -73.5 -15t-68.5 -50l-170 -803h-295z" />
<glyph unicode="s" horiz-adv-x="831" d="M-18 268q0 118 45 188.5t110 75.5q84 151 156 472l297 61v-29q0 -93 14.5 -175.5t35 -142t40.5 -115t34.5 -118.5t14.5 -129q0 -29 -2 -43q80 72 133 133l53 -69q-26 -20 -221 -187q-42 -89 -132.5 -139.5t-227.5 -50.5q-182 0 -266 60.5t-84 207.5zM86 295 q0 -174 174 -174q60 0 115 67.5t55 176.5q0 50 -23 120t-47 165.5t-26 205.5q-4 -13 -42 -143t-65 -191q68 -22 68 -114q0 -57 -40 -94.5t-95 -37.5q-34 0 -74 19z" />
<glyph unicode="t" horiz-adv-x="598" d="M-2 223q0 49 26 182t65.5 311t49.5 226h-67l16 82h68l61 283l303 41q-30 -140 -69 -324h122l-16 -82h-123q-139 -638 -139 -678q0 -39 22 -58.5t80 -19.5q29 0 67.5 20.5t66.5 43.5t73.5 63t63.5 54h69q-14 -14 -57 -59t-76 -79t-84 -80t-93 -76t-89.5 -51.5t-85.5 -21.5 q-122 0 -188 55t-66 168z" />
<glyph unicode="u" horiz-adv-x="1064" d="M-29 223q0 42 13 105l147 696h295l-147 -696q-9 -52 -9 -64q0 -37 22.5 -57.5t80.5 -20.5q53 0 145 74q3 31 12 68l148 696h295l-148 -696q-8 -46 -8 -64q0 -37 22.5 -57.5t80.5 -20.5q29 0 67 20.5t66 43.5t73.5 62.5t63.5 54.5h70q-13 -13 -56.5 -58.5t-76.5 -79.5 t-84.5 -80t-93 -76t-89.5 -51.5t-86 -21.5q-108 0 -173.5 42.5t-78.5 129.5q-183 -172 -295 -172q-122 0 -189 55t-67 168z" />
<glyph unicode="v" horiz-adv-x="851" d="M-27 223q0 51 11 105l147 696h295l-147 -696q-11 -53 -11 -76q0 -66 78 -66q58 0 112 48.5t94 124t70.5 166t46 178t15.5 155.5q-24 -8 -43 -8q-42 0 -64 34t-22 81q0 35 34.5 67.5t82.5 32.5q64 0 97.5 -50.5t33.5 -133.5t-14.5 -176.5t-42.5 -193.5t-76 -190.5 t-109 -162.5t-147.5 -115t-186.5 -43q-122 0 -188 55t-66 168z" />
<glyph unicode="w" horiz-adv-x="1374" d="M-31 223q0 42 13 105l147 696h295l-148 -696q-8 -46 -8 -64q0 -37 22.5 -57.5t80.5 -20.5q57 0 143 72q0 28 10 70l148 696h295l-148 -696q-10 -48 -10 -76q0 -66 78 -66q58 0 112 48.5t94 124t70.5 166t46 178t15.5 155.5q-24 -8 -43 -8q-42 0 -64 34t-22 81 q0 35 34 67.5t82 32.5q64 0 97.5 -50.5t33.5 -133.5t-14 -176.5t-42.5 -193.5t-76 -190.5t-109 -162.5t-147.5 -115t-186 -43q-221 0 -250 170q-185 -170 -293 -170q-122 0 -189 55t-67 168z" />
<glyph unicode="x" horiz-adv-x="747" d="M-109 180q45 31 127 103.5t136 128.5l-134 612h295l105 -481q81 74 138 161.5t60 157.5q-24 -4 -34 -4q-97 0 -97 115q0 50 40 75t100 25q54 0 84 -50.5t30 -121.5q0 -48 -29.5 -112t-78.5 -129.5t-95 -119t-96 -104.5l27 -119q8 -39 14 -57t18.5 -38.5t33.5 -28t55 -7.5 q29 0 67 20.5t66 43.5t73.5 62.5t63.5 54.5h70q-13 -13 -56.5 -58.5t-76.5 -79.5t-84.5 -80t-93 -76t-89.5 -51.5t-86 -21.5q-47 0 -78.5 4.5t-58.5 19t-44 34t-33.5 58.5t-28.5 84t-27 117l-2 7q-28 -23 -112.5 -96.5t-129.5 -108.5z" />
<glyph unicode="y" horiz-adv-x="1044" d="M-29 223q0 42 13 105l147 696h295l-147 -696q-9 -52 -9 -64q0 -37 22.5 -57.5t80.5 -20.5q59 0 153 80l162 758h295l-190 -897q223 107 313 303l-8 -162q-19 -89 -103 -142.5t-223 -92.5l-41 -197q-72 -348 -369 -348q-97 0 -169 62t-72 159q0 55 19 99t47.5 73.5t78 56 t94.5 42.5t113 36l29 140q-171 -156 -275 -156q-122 0 -189 55t-67 168zM233 -262q0 -23 25 -45.5t57 -22.5q36 0 69 38.5t50 121.5l25 119q-109 -36 -167.5 -85t-58.5 -126z" />
<glyph unicode="z" horiz-adv-x="784" d="M-96 0l538 938q-94 4 -149 4q-113 0 -113 -45q14 0 24.5 -17t10.5 -42q0 -123 -129 -123q-42 0 -69 34.5t-27 84.5q0 83 61 136.5t178 53.5h551l-538 -938q94 -4 149 -4q113 0 113 45q-14 0 -25.5 16t-11.5 41q0 66 37 95.5t94 29.5q42 0 69 -34.5t27 -84.5 q0 -83 -61 -136.5t-178 -53.5h-551z" />
<glyph unicode="{" horiz-adv-x="720" d="M61 -287q0 65 30.5 150t69 157t81 167t59.5 171q6 24 6 45q0 64 -84 64q-25 0 -65 -6l24 117q44 -7 64 -7q38 0 64.5 15.5t40.5 36.5t21.5 55t9 59.5t1.5 61.5q0 58 -7 166t-7 159q0 50 10 103t35 109t61 100t93.5 72t127.5 28h88l-18 -102q-72 0 -113.5 -10t-72.5 -44 q-52 -58 -72.5 -125t-22.5 -157l13 -350q-6 -164 -82 -228q24 -27 24 -74q0 -60 -38 -157t-83.5 -184t-83.5 -188.5t-38 -170.5q0 -164 174 -164l-19 -92h-18q-105 0 -151 14t-83 72q-39 58 -39 137z" />
<glyph unicode="|" horiz-adv-x="1089" d="M449 -512v2050h190v-2050h-190z" />
<glyph unicode="}" horiz-adv-x="720" d="M61 -510l19 102q72 0 113.5 10t72.5 44q52 58 72 124.5t22 157.5l-12 351q5 163 82 227q-24 27 -24 74q0 60 38 157t83.5 184t83.5 188.5t38 170.5q0 164 -174 164l19 92h18q105 0 150.5 -14t82.5 -72q39 -61 39 -137q0 -65 -30.5 -150t-69 -157t-80.5 -167t-59 -171 q-6 -24 -6 -45q0 -64 84 -64q25 0 65 6l-24 -116q-38 6 -64 6q-38 0 -64.5 -15.5t-40.5 -36.5t-21.5 -55t-9 -59.5t-1.5 -61.5q0 -58 7 -166t7 -159q0 -50 -10 -103t-35 -109t-61 -100t-93.5 -72t-127.5 -28h-89z" />
<glyph unicode="~" horiz-adv-x="882" d="M100 1192q49 98 137 149.5t205 51.5q79 0 180.5 -34t157.5 -34q85 0 129 47l13 -2q-18 -75 -117.5 -140t-212.5 -65q-70 0 -180 38t-164 38q-79 0 -135 -53z" />
<glyph unicode="&#xa1;" horiz-adv-x="448" d="M-125 -508l266 961h174l-145 -961h-295zM121 762q0 68 47.5 116t114.5 48t115 -48t48 -116q0 -67 -47.5 -114.5t-115.5 -47.5q-67 0 -114.5 47t-47.5 115z" />
<glyph unicode="&#xa2;" horiz-adv-x="825" d="M63 647q0 141 48 262.5t146.5 206.5t231.5 103l46 251h118l-55 -249q81 -5 132.5 -38.5t51.5 -101.5q0 -33 -10 -67h-117q11 42 11 57q0 70 -76 70h-10l-156 -703q10 -2 31 -2q40 0 76 10.5t72.5 34t59 41.5t62.5 53q-45 -267 -332 -278l-78 -352h-55l64 354 q-112 16 -186.5 107t-74.5 241zM279 653q0 -55 18.5 -105t56.5 -79l113 625q-82 -64 -135 -190t-53 -251z" />
<glyph unicode="&#xa3;" horiz-adv-x="952" d="M51 686q67 136 215 182l148 605l307 63l-164 -678q8 -2 32.5 -10.5t35.5 -11.5t31.5 -8t38 -7t36.5 -2q85 0 129 47l12 -2q-18 -75 -117 -140t-212 -65h-33l-115 -473q32 4 101.5 6.5t111.5 7.5t115.5 36t150.5 88q-15 -148 -72 -236t-140 -88h-605l176 733q-10 2 -34 2 q-80 0 -136 -53z" />
<glyph unicode="&#xa4;" horiz-adv-x="1024" d="M139 1008l78 73l115 -114q83 61 186 61q101 0 182 -59l115 114l74 -73l-113 -113q62 -84 62 -188q0 -103 -62 -187l113 -112l-74 -74l-113 113q-83 -60 -184 -60q-104 0 -188 62l-115 -115l-74 74l115 114q-59 81 -59 183q0 103 59 184zM313 709q0 -85 60 -145t145 -60 t145 60t60 145t-60 144.5t-145 59.5t-145 -59.5t-60 -144.5z" />
<glyph unicode="&#xa5;" horiz-adv-x="970" d="M39 291l29 102h196l29 133h-203l29 103h196l-229 907h336l180 -739l307 739h135l-401 -907h268l-28 -103h-262l-29 -133h268l-29 -102h-262l-61 -291h-328l62 291h-203z" />
<glyph unicode="&#xa6;" horiz-adv-x="1089" d="M449 455h190v-967h-190v967zM449 616v922h190v-922h-190z" />
<glyph unicode="&#xa7;" horiz-adv-x="1110" d="M16 154q0 116 56 186t149 70q78 0 154 -103q-97 -9 -131.5 -46t-34.5 -124q0 -145 156 -145q98 0 137 54.5t39 156.5q0 63 -20.5 117t-53 93.5t-71.5 76.5t-78.5 72t-72 72t-53 85.5t-20.5 103.5q0 90 59 163.5t154 109.5q-10 52 -10 98q0 79 38.5 146t100.5 108.5 t136 64.5t149 23q276 0 276 -197q0 -71 -37 -117t-100 -46q-45 0 -74 32q33 20 53.5 60.5t20.5 81.5q0 47 -29.5 78.5t-89.5 31.5q-76 0 -132 -66.5t-56 -138.5q0 -56 22.5 -105t58 -85.5t79 -71.5t86.5 -71t78.5 -75.5t58 -94t22.5 -117.5q0 -135 -63 -235t-174 -121v-9 q0 -173 -118.5 -277t-315.5 -104q-46 0 -87 4.5t-91.5 21t-86 44t-60 78t-24.5 117.5zM389 907q0 -28 18.5 -58t48.5 -59t67.5 -60.5t78 -69.5t76 -79t65 -94.5t43.5 -111.5q39 48 39 129q0 57 -21.5 107t-55 85.5t-78 73t-86.5 68t-85.5 74t-70.5 87.5q-39 -39 -39 -92z " />
<glyph unicode="&#xa8;" horiz-adv-x="802" d="M115 1298q0 51 36.5 88t88.5 37q51 0 88 -37t37 -88q0 -52 -37 -88t-88 -36q-53 0 -89 36t-36 88zM483 1298q0 51 36.5 88t88.5 37q51 0 88 -37t37 -88q0 -52 -37 -88t-88 -36q-53 0 -89 36t-36 88z" />
<glyph unicode="&#xa9;" horiz-adv-x="1202" d="M104 678q0 144 67.5 265t181.5 190t247 69t247 -68.5t181.5 -189t67.5 -264.5t-67.5 -265t-181.5 -190t-247 -69t-247 69t-181.5 189.5t-67.5 263.5zM199 678q0 -183 119 -309.5t286 -126.5q166 0 285 126.5t119 309.5t-119 309.5t-285 126.5q-167 0 -286 -126.5 t-119 -309.5zM311 688q0 129 88.5 216t214.5 87l-2 -6q95 0 165 -52.5t91 -135.5l-106 -41q-7 8 -8 24.5t-2 18.5q-4 12 -15 29t-44.5 37t-78.5 20q-78 0 -134 -48.5t-56 -138.5q0 -92 56 -155.5t138 -63.5q48 0 89.5 24.5t64.5 67.5l90 -59q-43 -65 -110 -102t-142 -37 q-124 0 -211.5 93.5t-87.5 221.5z" />
<glyph unicode="&#xaa;" horiz-adv-x="706" d="M88 1096q0 60 9 116.5t32 112t57.5 96.5t89 66.5t123.5 25.5q40 0 80 -28l6 31h170l-86 -377q-6 -36 -6 -37q0 -41 43 -41q21 0 31 4q-15 -45 -38.5 -69t-41 -28.5t-43.5 -4.5q-99 0 -119 84q-71 -91 -162 -91q-77 0 -111 41t-34 99zM248 1126q0 -77 69 -77q53 0 82 90 l68 293q-23 20 -59 20q-42 0 -80 -50.5t-59 -125.5t-21 -150z" />
<glyph unicode="&#xab;" horiz-adv-x="1206" d="M41 487l18 84l629 308l-20 -113l-494 -246l397 -196l-24 -117zM471 487l18 84l629 308l-20 -113l-494 -246l397 -196l-24 -117z" />
<glyph unicode="&#xac;" horiz-adv-x="909" d="M39 455l37 161h741l-104 -512h-232l72 351h-514z" />
<glyph unicode="&#xad;" horiz-adv-x="593" d="M39 455l37 161h409l-34 -161h-412z" />
<glyph unicode="&#xae;" horiz-adv-x="1132" d="M70 684q0 108 39.5 205.5t106.5 167t158 110.5t191 41q133 0 247 -68.5t181.5 -189t67.5 -264.5t-67.5 -265t-181.5 -190t-247 -69q-100 0 -191 41t-158 110.5t-106.5 166.5t-39.5 204zM164 684q0 -183 119 -309.5t286 -126.5q166 0 285 126.5t119 309.5t-119 309.5 t-285 126.5q-167 0 -286 -126.5t-119 -309.5zM360 393l2 596h193q110 0 178 -45t68 -129q0 -54 -33.5 -97.5t-87.5 -58.5l133 -256l-96 -14l-127 256h-135v-252h-95zM455 723h106q36 0 65.5 6t55 27.5t25.5 56.5q0 49 -44.5 70.5t-105.5 21.5h-102v-182z" />
<glyph unicode="&#xb0;" horiz-adv-x="643" d="M76 999q0 187 91 313t241 126q87 0 127 -58.5t40 -173.5q0 -68 -20.5 -142.5t-57 -142t-96 -111.5t-129.5 -44q-113 0 -154.5 57t-41.5 176zM223 975q0 -133 56 -133q53 0 93 56t60.5 145t20.5 194q0 129 -52 129q-50 0 -106.5 -83.5t-67.5 -219.5q-4 -50 -4 -88z" />
<glyph unicode="&#xb1;" horiz-adv-x="1091" d="M63 139l37 162h752l-35 -162h-754zM170 633l49 229h262l56 250h231l-55 -250h260l-47 -229h-262l-56 -252h-231l55 252h-262z" />
<glyph unicode="&#xb2;" horiz-adv-x="614" d="M6 739q0 66 40.5 130t97.5 118t114.5 110.5t98 131t40.5 155.5q0 38 -22 64.5t-49 26.5q-56 0 -76.5 -22t-20.5 -67q0 -24 11 -47t34 -28q-45 -39 -92 -39q-37 0 -60.5 26t-23.5 74q0 65 61 113.5t185 48.5q225 0 225 -176q0 -70 -34 -132.5t-88 -111t-110 -90 t-111 -87.5t-81 -85q24 0 94.5 -8t120.5 -10q55 0 92 15t87 60q0 -37 -0.5 -57t-3.5 -47t-8.5 -40.5t-15.5 -29.5t-25 -23.5t-37 -12.5t-52 -5q-65 0 -149 20.5t-144 20.5q-13 0 -30.5 -6t-37 -15.5t-26.5 -11.5q-4 24 -4 37z" />
<glyph unicode="&#xb3;" horiz-adv-x="647" d="M27 879q0 79 36.5 123.5t104.5 44.5q82 0 96 -56q-34 -3 -56.5 -15.5t-32 -33t-12.5 -39t-3 -43.5q0 -52 26.5 -71t77.5 -19q63 0 104.5 58.5t41.5 134.5q0 68 -38.5 124.5t-115.5 81.5q96 23 149.5 88.5t53.5 131.5q0 38 -20 62t-56 24q-107 0 -107 -89q0 -24 11.5 -47 t34.5 -28q-45 -39 -93 -39q-37 0 -60.5 26t-23.5 74q0 64 66 113t190 49q98 0 153.5 -47t55.5 -115q0 -59 -40.5 -113.5t-120.5 -91.5q147 -44 147 -180q0 -105 -89.5 -196t-215.5 -91q-44 0 -83 6t-83.5 23t-71 55.5t-26.5 94.5z" />
<glyph unicode="&#xb4;" horiz-adv-x="411" d="M170 1149l186 387h215l-247 -387h-154z" />
<glyph unicode="&#xb5;" horiz-adv-x="1064" d="M-158 -342l289 1366h295l-147 -696q-9 -52 -9 -64q0 -37 22.5 -57.5t80.5 -20.5q53 0 145 74q3 31 12 68l148 696h295l-148 -696q-8 -46 -8 -64q0 -37 22.5 -57.5t80.5 -20.5q29 0 67 20.5t66 43.5t73.5 62.5t63.5 54.5h70q-13 -13 -56.5 -58.5t-76.5 -79.5t-84.5 -80 t-93 -76t-89.5 -51.5t-86 -21.5q-108 0 -173.5 42.5t-78.5 129.5q-183 -172 -295 -172h-18l-57 -268z" />
<glyph unicode="&#xb6;" horiz-adv-x="1110" d="M147 1008q0 77 20.5 152t63 143t102 119t144 81.5t182.5 30.5q80 0 146 -18.5t119.5 -57t83.5 -105.5t30 -157q0 -62 -16 -147l-260 -1215h-193l166 778q-33 -11 -88 -22l-158 -756h-192l158 756q-100 20 -171 83t-104 149t-33 186zM670 694h12q41 0 72 8l98 465 q12 59 12 101q0 85 -47 129z" />
<glyph unicode="&#xb7;" horiz-adv-x="888" d="M246 547q0 82 57 140t139 58t140.5 -58t58.5 -140t-58.5 -139.5t-140.5 -57.5t-139 57.5t-57 139.5z" />
<glyph unicode="&#xb8;" horiz-adv-x="1705" d="M150 -389q35 65 81 65q45 0 86 -27.5t66 -27.5t43 26.5t18 59.5q0 31 -19.5 52.5t-59.5 21.5q-49 0 -107 -25l109 303l71 -47l-59 -147q66 16 108 16q63 0 95 -27t32 -75q0 -104 -74 -164.5t-171 -60.5q-70 0 -117.5 14t-101.5 43z" />
<glyph unicode="&#xb9;" horiz-adv-x="444" d="M45 707l158 690h-113l14 51q148 0 302 86l-189 -827h-172z" />
<glyph unicode="&#xba;" horiz-adv-x="673" d="M86 1137q0 98 25.5 174t69.5 122t99 69.5t117 23.5q45 0 79 -14t34 -35q0 -37 -53 -54q-16 39 -54 39q-41 0 -73.5 -36t-50 -89t-26.5 -103t-9 -87q0 -47 22 -65.5t62 -18.5q47 0 81 68.5t42 152.5q-33 5 -33 45q0 30 25.5 57t54.5 27q39 0 39 -29v-10q14 8 23.5 17 t22.5 25t21 24l12 -23q-27 -87 -79 -117q-4 -82 -30.5 -150t-65 -109.5t-82.5 -64t-87 -22.5q-96 0 -141 43t-45 140z" />
<glyph unicode="&#xbb;" horiz-adv-x="1200" d="M31 207l28 117l492 196l-397 246l18 113l504 -308l-23 -110zM485 207l29 117l492 196l-398 246l19 113l503 -308l-22 -110z" />
<glyph unicode="&#xbc;" horiz-adv-x="1411" d="M143 461l158 690h-113l15 51q147 0 301 86l-189 -827h-172zM285 -338l540 1874h148l-541 -1874h-147zM766 307q14 41 60 129t79 172t33 156q0 36 -8 67q56 0 94.5 -27t38.5 -77q0 -49 -20 -99t-44 -84t-58.5 -81t-51.5 -76h184l96 422l177 22l-103 -444h78l-25 -80h-71 l-70 -305h-170l70 305h-289z" />
<glyph unicode="&#xbd;" horiz-adv-x="1382" d="M143 461l158 690h-113l15 51q147 0 301 86l-189 -827h-172zM274 -338l541 1874h148l-541 -1874h-148zM750 43q0 49 21.5 96t56 86.5t76.5 79.5t83.5 82t76 86t56 99.5t21.5 115.5q0 38 -22 64t-50 26q-56 0 -76 -21.5t-20 -66.5q0 -24 11.5 -47.5t33.5 -28.5 q-45 -39 -92 -39q-37 0 -60.5 26.5t-23.5 74.5q0 66 60.5 114t184.5 48q226 0 226 -176q0 -70 -34 -132.5t-88 -111t-110 -90t-111 -87.5t-81 -85q24 0 94.5 -8.5t120.5 -10.5q55 0 91.5 15.5t86.5 60.5q0 -52 -1.5 -77.5t-8.5 -57.5t-21.5 -46t-41.5 -24t-68 -10 q-65 0 -149 20.5t-144 20.5q-13 0 -30.5 -6t-37 -15.5t-26.5 -11.5q-4 24 -4 37z" />
<glyph unicode="&#xbe;" horiz-adv-x="1677" d="M125 633q0 79 36.5 123.5t104.5 44.5q82 0 96 -56q-34 -3 -56.5 -15.5t-32 -33t-12.5 -39t-3 -43.5q0 -52 26.5 -71t77.5 -19q63 0 104.5 58.5t41.5 134.5q0 68 -38.5 125t-115.5 82q96 23 149.5 88.5t53.5 130.5q0 38 -20 62t-56 24q-106 0 -106 -88q0 -24 11.5 -47.5 t33.5 -28.5q-45 -39 -92 -39q-37 0 -60.5 26t-23.5 74q0 64 66 113t190 49q98 0 153.5 -47t55.5 -115q0 -58 -41 -112.5t-121 -91.5q75 -22 111 -70t36 -111q0 -105 -89.5 -195.5t-215.5 -90.5q-264 0 -264 178zM522 -338l541 1874h147l-540 -1874h-148zM1010 307 q14 41 60 129t79 172t33 156q0 36 -8 67q56 0 94.5 -27t38.5 -77q0 -49 -20 -99t-44 -84t-58.5 -81t-51.5 -76h184l96 422l176 22l-102 -444h78l-25 -80h-72l-69 -305h-170l69 305h-288z" />
<glyph unicode="&#xbf;" horiz-adv-x="899" d="M25 -262q0 78 20 142.5t55 112t77.5 88.5t91.5 80.5t93.5 79.5t87 95t68.5 117h135q0 -58 -20.5 -113t-53.5 -99.5t-72.5 -88.5t-79 -88.5t-72.5 -91t-53.5 -105t-20.5 -121.5q0 -71 32 -106t80 -35q62 0 113 48.5t51 121.5q0 42 -19.5 83t-58.5 52q26 42 66 64t84 22 q64 0 109.5 -45t45.5 -127q0 -55 -24.5 -110.5t-73.5 -106t-135.5 -82t-196.5 -31.5q-329 0 -329 244zM473 762q0 69 47.5 117.5t114.5 48.5q68 0 116 -48.5t48 -117.5q0 -67 -48 -114.5t-116 -47.5q-67 0 -114.5 47t-47.5 115z" />
<glyph unicode="&#xc0;" horiz-adv-x="1368" d="M18 696q0 61 55.5 116t148 87.5t196.5 32.5q54 0 121 -6q81 129 166 236.5t177 193.5t187.5 134t183.5 48t164 -31l-321 -1507h-295l157 743q-151 66 -276 74q-116 -249 -190 -511.5t-74 -422.5q0 -36 4 -59t9 -30.5t9.5 -13.5t5.5 -11q-118 7 -163 24q-98 36 -109 165 q-2 19 -2 40q0 131 83.5 359t217.5 460q-100 -7 -160 -30.5t-80 -75.5q8 0 17.5 -21.5t9.5 -42.5q0 -35 -31.5 -57.5t-93.5 -22.5q-49 0 -83 32.5t-34 96.5zM723 903q146 -27 254 -69l119 557q-176 -96 -373 -488zM997 2048h215l60 -387h-154z" />
<glyph unicode="&#xc1;" horiz-adv-x="1368" d="M18 696q0 61 55.5 116t148 87.5t196.5 32.5q54 0 121 -6q81 129 166 236.5t177 193.5t187.5 134t183.5 48t164 -31l-321 -1507h-295l157 743q-151 66 -276 74q-116 -249 -190 -511.5t-74 -422.5q0 -36 4 -59t9 -30.5t9.5 -13.5t5.5 -11q-118 7 -163 24q-98 36 -109 165 q-2 19 -2 40q0 131 83.5 359t217.5 460q-100 -7 -160 -30.5t-80 -75.5q8 0 17.5 -21.5t9.5 -42.5q0 -35 -31.5 -57.5t-93.5 -22.5q-49 0 -83 32.5t-34 96.5zM723 903q146 -27 254 -69l119 557q-176 -96 -373 -488zM1036 1661l187 387h215l-248 -387h-154z" />
<glyph unicode="&#xc2;" horiz-adv-x="1368" d="M18 696q0 61 55.5 116t148 87.5t196.5 32.5q54 0 121 -6q81 129 166 236.5t177 193.5t187.5 134t183.5 48t164 -31l-321 -1507h-295l157 743q-151 66 -276 74q-116 -249 -190 -511.5t-74 -422.5q0 -36 4 -59t9 -30.5t9.5 -13.5t5.5 -11q-118 7 -163 24q-98 36 -109 165 q-2 19 -2 40q0 131 83.5 359t217.5 460q-100 -7 -160 -30.5t-80 -75.5q8 0 17.5 -21.5t9.5 -42.5q0 -35 -31.5 -57.5t-93.5 -22.5q-49 0 -83 32.5t-34 96.5zM723 903q146 -27 254 -69l119 557q-176 -96 -373 -488zM854 1661l434 387h43l123 -387h-65l-123 164l-322 -164h-90 z" />
<glyph unicode="&#xc3;" horiz-adv-x="1368" d="M18 696q0 61 55.5 116t148 87.5t196.5 32.5q54 0 121 -6q81 129 166 236.5t177 193.5t187.5 134t183.5 48t164 -31l-321 -1507h-295l157 743q-151 66 -276 74q-116 -249 -190 -511.5t-74 -422.5q0 -36 4 -59t9 -30.5t9.5 -13.5t5.5 -11q-118 7 -163 24q-98 36 -109 165 q-2 19 -2 40q0 131 83.5 359t217.5 460q-100 -7 -160 -30.5t-80 -75.5q8 0 17.5 -21.5t9.5 -42.5q0 -35 -31.5 -57.5t-93.5 -22.5q-49 0 -83 32.5t-34 96.5zM723 903q146 -27 254 -69l119 557q-176 -96 -373 -488zM778 1704q49 98 137 149.5t205 51.5q79 0 180.5 -34 t157.5 -34q85 0 129 47l12 -2q-18 -75 -117 -140t-212 -65q-70 0 -180 38t-164 38q-79 0 -135 -53z" />
<glyph unicode="&#xc4;" horiz-adv-x="1368" d="M18 696q0 61 55.5 116t148 87.5t196.5 32.5q54 0 121 -6q81 129 166 236.5t177 193.5t187.5 134t183.5 48t164 -31l-321 -1507h-295l157 743q-151 66 -276 74q-116 -249 -190 -511.5t-74 -422.5q0 -36 4 -59t9 -30.5t9.5 -13.5t5.5 -11q-118 7 -163 24q-98 36 -109 165 q-2 19 -2 40q0 131 83.5 359t217.5 460q-100 -7 -160 -30.5t-80 -75.5q8 0 17.5 -21.5t9.5 -42.5q0 -35 -31.5 -57.5t-93.5 -22.5q-49 0 -83 32.5t-34 96.5zM723 903q146 -27 254 -69l119 557q-176 -96 -373 -488zM881 1810q0 51 36.5 88t88.5 37q51 0 87.5 -37t36.5 -88 q0 -52 -36.5 -88t-87.5 -36q-53 0 -89 36t-36 88zM1249 1810q0 51 36.5 88t88.5 37q51 0 88 -37t37 -88q0 -52 -37 -88t-88 -36q-53 0 -89 36t-36 88z" />
<glyph unicode="&#xc5;" horiz-adv-x="1368" d="M18 696q0 61 55.5 116t148 87.5t196.5 32.5q54 0 121 -6q81 129 166 236.5t177 193.5t187.5 134t183.5 48t164 -31l-321 -1507h-295l157 743q-151 66 -276 74q-116 -249 -190 -511.5t-74 -422.5q0 -36 4 -59t9 -30.5t9.5 -13.5t5.5 -11q-118 7 -163 24q-98 36 -109 165 q-2 19 -2 40q0 131 83.5 359t217.5 460q-100 -7 -160 -30.5t-80 -75.5q8 0 17.5 -21.5t9.5 -42.5q0 -35 -31.5 -57.5t-93.5 -22.5q-49 0 -83 32.5t-34 96.5zM723 903q146 -27 254 -69l119 557q-176 -96 -373 -488zM1098 1786q0 29 10.5 60.5t30 60t54.5 47t79 18.5 q72 0 109.5 -43.5t37.5 -113.5q0 -74 -44.5 -123.5t-133.5 -49.5q-64 0 -103.5 42t-39.5 102zM1180 1790q0 -76 69 -76q46 0 70 25t24 69q0 20 -1.5 32.5t-7 29.5t-20.5 26t-38 9q-49 0 -72.5 -35t-23.5 -80z" />
<glyph unicode="&#xc6;" horiz-adv-x="1564" d="M18 696q0 61 55.5 116t148 87.5t196.5 32.5q54 0 121 -6q81 129 166 236.5t177 193.5t187.5 134t183.5 48q53 0 173.5 -20.5t195.5 -20.5q119 0 240 39q-4 -10 -11.5 -35t-12 -39t-14.5 -36.5t-20 -36t-26.5 -30.5t-35 -26t-45 -15.5t-57.5 -6.5q-21 0 -41 1.5t-40.5 6 t-34.5 8t-36.5 11.5t-31.5 11.5t-34.5 13.5t-32.5 13l-111 -518h317l-41 -151h-309l-104 -490h458l-43 -217h-755l157 743q-151 66 -276 74q-116 -249 -190 -511.5t-74 -422.5q0 -36 4 -59t9 -30.5t9.5 -13.5t5.5 -11q-118 7 -163 24q-98 36 -109 165q-2 19 -2 40 q0 131 83.5 359t217.5 460q-100 -7 -160 -30.5t-80 -75.5q8 0 17.5 -21.5t9.5 -42.5q0 -35 -31.5 -57.5t-93.5 -22.5q-49 0 -83 32.5t-34 96.5zM723 903q146 -27 254 -69l119 557q-176 -96 -373 -488z" />
<glyph unicode="&#xc7;" horiz-adv-x="1017" d="M49 510q0 100 9.5 197.5t32.5 200.5t58 193t90 171t124.5 139t166 91.5t209.5 33.5q59 0 110.5 -9t97 -30t78.5 -52.5t52 -78t19 -104.5q0 -87 -35 -138t-109 -51q-70 0 -116 53q35 10 62.5 67t27.5 101q0 14 -2 28.5t-10.5 37t-22.5 39t-42 29t-65 12.5 q-90 0 -170 -86.5t-131.5 -219.5t-81.5 -286.5t-30 -292.5q0 -106 11 -174t41 -117.5t82.5 -70.5t135.5 -21q122 0 225 50.5t158 146.5l47 -21q-35 -97 -94.5 -167.5t-132 -109t-142.5 -57.5t-147 -24l-49 -125q66 16 108 16q63 0 95 -27t32 -75q0 -104 -74 -164.5 t-171 -60.5q-71 0 -118.5 14.5t-101.5 42.5q35 65 82 65q45 0 86 -27.5t66 -27.5q26 0 43.5 26.5t17.5 59.5q0 31 -19.5 52.5t-59.5 21.5q-50 0 -107 -25l82 234q-64 3 -121 18.5t-112.5 53t-95.5 94t-64.5 147.5t-24.5 207z" />
<glyph unicode="&#xc8;" horiz-adv-x="940" d="M23 401q0 102 39.5 193.5t125.5 163.5t205 96q-101 55 -152 137t-51 174q0 71 31 137t87 118.5t144 84t193 31.5q74 0 139.5 -15.5t120 -46.5t86 -85.5t31.5 -126.5q0 -87 -34.5 -138t-108.5 -51q-71 0 -117 53q35 10 62.5 67t27.5 101q0 15 -1 29t-9 38.5t-21 41.5 t-40 30t-64 13q-110 0 -180 -73.5t-70 -178.5q0 -96 66.5 -186.5t203.5 -151.5q-183 -75 -269.5 -185.5t-86.5 -226.5q0 -112 71 -192t169 -80q115 0 189.5 47.5t133.5 149.5l47 -21q-131 -360 -545 -360q-103 0 -185 34.5t-133 93t-78 131.5t-27 154zM537 2048h215l59 -387 h-154z" />
<glyph unicode="&#xc9;" horiz-adv-x="940" d="M23 401q0 102 39.5 193.5t125.5 163.5t205 96q-101 55 -152 137t-51 174q0 71 31 137t87 118.5t144 84t193 31.5q74 0 139.5 -15.5t120 -46.5t86 -85.5t31.5 -126.5q0 -87 -34.5 -138t-108.5 -51q-71 0 -117 53q35 10 62.5 67t27.5 101q0 15 -1 29t-9 38.5t-21 41.5 t-40 30t-64 13q-110 0 -180 -73.5t-70 -178.5q0 -96 66.5 -186.5t203.5 -151.5q-183 -75 -269.5 -185.5t-86.5 -226.5q0 -112 71 -192t169 -80q115 0 189.5 47.5t133.5 149.5l47 -21q-131 -360 -545 -360q-103 0 -185 34.5t-133 93t-78 131.5t-27 154zM596 1661l186 387h215 l-247 -387h-154z" />
<glyph unicode="&#xca;" horiz-adv-x="940" d="M23 401q0 102 39.5 193.5t125.5 163.5t205 96q-101 55 -152 137t-51 174q0 71 31 137t87 118.5t144 84t193 31.5q74 0 139.5 -15.5t120 -46.5t86 -85.5t31.5 -126.5q0 -87 -34.5 -138t-108.5 -51q-71 0 -117 53q35 10 62.5 67t27.5 101q0 15 -1 29t-9 38.5t-21 41.5 t-40 30t-64 13q-110 0 -180 -73.5t-70 -178.5q0 -96 66.5 -186.5t203.5 -151.5q-183 -75 -269.5 -185.5t-86.5 -226.5q0 -112 71 -192t169 -80q115 0 189.5 47.5t133.5 149.5l47 -21q-131 -360 -545 -360q-103 0 -185 34.5t-133 93t-78 131.5t-27 154zM416 1661l434 387h43 l123 -387h-66l-123 164l-321 -164h-90z" />
<glyph unicode="&#xcb;" horiz-adv-x="940" d="M23 401q0 102 39.5 193.5t125.5 163.5t205 96q-101 55 -152 137t-51 174q0 71 31 137t87 118.5t144 84t193 31.5q74 0 139.5 -15.5t120 -46.5t86 -85.5t31.5 -126.5q0 -87 -34.5 -138t-108.5 -51q-71 0 -117 53q35 10 62.5 67t27.5 101q0 15 -1 29t-9 38.5t-21 41.5 t-40 30t-64 13q-110 0 -180 -73.5t-70 -178.5q0 -96 66.5 -186.5t203.5 -151.5q-183 -75 -269.5 -185.5t-86.5 -226.5q0 -112 71 -192t169 -80q115 0 189.5 47.5t133.5 149.5l47 -21q-131 -360 -545 -360q-103 0 -185 34.5t-133 93t-78 131.5t-27 154zM385 1810 q0 51 36.5 88t88.5 37q51 0 88 -37t37 -88q0 -52 -37 -88t-88 -36q-53 0 -89 36t-36 88zM754 1810q0 51 36.5 88t88.5 37q51 0 88 -37t37 -88q0 -52 -37 -88t-88 -36q-53 0 -89 36t-36 88z" />
<glyph unicode="&#xcc;" horiz-adv-x="768" d="M12 1004q0 132 108 256.5t275 200t336 75.5q28 0 82 -4l-326 -1532h-294l296 1391q-136 -57 -211 -171t-75 -276q0 -46 6.5 -76t14 -44.5t7.5 -18.5q-110 0 -164.5 46t-54.5 153zM471 2048h215l59 -387h-153z" />
<glyph unicode="&#xcd;" horiz-adv-x="768" d="M12 1004q0 132 108 256.5t275 200t336 75.5q28 0 82 -4l-326 -1532h-294l296 1391q-136 -57 -211 -171t-75 -276q0 -46 6.5 -76t14 -44.5t7.5 -18.5q-110 0 -164.5 46t-54.5 153zM616 1661l187 387h215l-248 -387h-154z" />
<glyph unicode="&#xce;" horiz-adv-x="768" d="M12 1004q0 132 108 256.5t275 200t336 75.5q28 0 82 -4l-326 -1532h-294l296 1391q-136 -57 -211 -171t-75 -276q0 -46 6.5 -76t14 -44.5t7.5 -18.5q-110 0 -164.5 46t-54.5 153zM309 1661l434 387h43l123 -387h-65l-123 164l-322 -164h-90z" />
<glyph unicode="&#xcf;" horiz-adv-x="768" d="M12 1004q0 132 108 256.5t275 200t336 75.5q28 0 82 -4l-326 -1532h-294l296 1391q-136 -57 -211 -171t-75 -276q0 -46 6.5 -76t14 -44.5t7.5 -18.5q-110 0 -164.5 46t-54.5 153zM342 1810q0 51 36.5 88t88.5 37q51 0 88 -37t37 -88q0 -52 -37 -88t-88 -36q-53 0 -89 36 t-36 88zM711 1810q0 51 36.5 88t88.5 37q51 0 88 -37t37 -88q0 -52 -37 -88t-88 -36q-53 0 -89 36t-36 88z" />
<glyph unicode="&#xd0;" horiz-adv-x="1357" d="M12 1004q0 132 108 256.5t275 200t336 75.5q138 0 243 -30.5t169.5 -80.5t105.5 -123t56.5 -150t15.5 -169q0 -260 -78 -493.5t-209.5 -375t-279.5 -141.5q-124 0 -250 109l-17 -82h-294l151 707h-80l41 151h72l94 445l303 40l-104 -485h161l-40 -151h-154l-109 -512 q55 -41 117 -41q88 0 164 83t125 213t76.5 285t27.5 305q0 82 -6.5 141t-24.5 110.5t-49.5 83t-81.5 49.5t-120 18q-251 0 -402 -133.5t-151 -364.5q0 -46 6.5 -76t14 -44.5t7.5 -18.5q-110 0 -164.5 46t-54.5 153z" />
<glyph unicode="&#xd1;" horiz-adv-x="1437" d="M12 1004q0 132 108 256.5t275 200t336 75.5q44 0 74 -7.5t51 -28t33 -46t18.5 -73.5t8.5 -97t2 -129q0 -109 -11.5 -347t-11.5 -335q0 -153 20 -223l273 1282h295l-326 -1532h-295q-67 0 -93 109.5t-26 308.5q0 99 7.5 322t7.5 331q0 125 -4 182l-267 -1253h-294 l296 1393q-137 -58 -211.5 -173t-74.5 -276q0 -46 6.5 -76t14 -44.5t7.5 -18.5q-110 0 -164.5 46t-54.5 153zM594 1704q49 98 137 149.5t205 51.5q79 0 180.5 -34t157.5 -34q85 0 129 47l12 -2q-18 -75 -117.5 -140t-212.5 -65q-70 0 -180 38t-164 38q-79 0 -135 -53z" />
<glyph unicode="&#xd2;" d="M12 1004q0 132 108 256.5t275 200t336 75.5q296 0 428.5 -139.5t132.5 -415.5q0 -121 -28 -257t-82.5 -267.5t-127 -237.5t-170.5 -171.5t-204 -65.5q-206 0 -313 108t-107 354q0 119 16 242.5t51.5 245t85 216.5t124 153.5t161.5 58.5q38 0 97 -17 q-130 -171 -203.5 -392t-73.5 -466q0 -143 41 -237t121 -94q85 0 173.5 137t145 341t56.5 392q0 74 -6 130.5t-25 113t-51 93t-87 59t-130 22.5q-251 0 -402 -133.5t-151 -364.5q0 -46 6.5 -76t14 -44.5t7.5 -18.5q-110 0 -164.5 46t-54.5 153zM700 2048h215l60 -387h-154z " />
<glyph unicode="&#xd3;" d="M12 1004q0 132 108 256.5t275 200t336 75.5q296 0 428.5 -139.5t132.5 -415.5q0 -121 -28 -257t-82.5 -267.5t-127 -237.5t-170.5 -171.5t-204 -65.5q-206 0 -313 108t-107 354q0 119 16 242.5t51.5 245t85 216.5t124 153.5t161.5 58.5q38 0 97 -17 q-130 -171 -203.5 -392t-73.5 -466q0 -143 41 -237t121 -94q85 0 173.5 137t145 341t56.5 392q0 74 -6 130.5t-25 113t-51 93t-87 59t-130 22.5q-251 0 -402 -133.5t-151 -364.5q0 -46 6.5 -76t14 -44.5t7.5 -18.5q-110 0 -164.5 46t-54.5 153zM883 1661l186 387h215 l-248 -387h-153z" />
<glyph unicode="&#xd4;" d="M12 1004q0 132 108 256.5t275 200t336 75.5q296 0 428.5 -139.5t132.5 -415.5q0 -121 -28 -257t-82.5 -267.5t-127 -237.5t-170.5 -171.5t-204 -65.5q-206 0 -313 108t-107 354q0 119 16 242.5t51.5 245t85 216.5t124 153.5t161.5 58.5q38 0 97 -17 q-130 -171 -203.5 -392t-73.5 -466q0 -143 41 -237t121 -94q85 0 173.5 137t145 341t56.5 392q0 74 -6 130.5t-25 113t-51 93t-87 59t-130 22.5q-251 0 -402 -133.5t-151 -364.5q0 -46 6.5 -76t14 -44.5t7.5 -18.5q-110 0 -164.5 46t-54.5 153zM618 1661l435 387h43 l123 -387h-66l-123 164l-321 -164h-91z" />
<glyph unicode="&#xd5;" d="M12 1004q0 132 108 256.5t275 200t336 75.5q296 0 428.5 -139.5t132.5 -415.5q0 -121 -28 -257t-82.5 -267.5t-127 -237.5t-170.5 -171.5t-204 -65.5q-206 0 -313 108t-107 354q0 119 16 242.5t51.5 245t85 216.5t124 153.5t161.5 58.5q38 0 97 -17 q-130 -171 -203.5 -392t-73.5 -466q0 -143 41 -237t121 -94q85 0 173.5 137t145 341t56.5 392q0 74 -6 130.5t-25 113t-51 93t-87 59t-130 22.5q-251 0 -402 -133.5t-151 -364.5q0 -46 6.5 -76t14 -44.5t7.5 -18.5q-110 0 -164.5 46t-54.5 153zM487 1704q49 98 137 149.5 t205 51.5q79 0 180.5 -34t157.5 -34q85 0 129 47l13 -2q-18 -75 -117.5 -140t-212.5 -65q-70 0 -180 38t-164 38q-79 0 -135 -53z" />
<glyph unicode="&#xd6;" d="M12 1004q0 132 108 256.5t275 200t336 75.5q296 0 428.5 -139.5t132.5 -415.5q0 -121 -28 -257t-82.5 -267.5t-127 -237.5t-170.5 -171.5t-204 -65.5q-206 0 -313 108t-107 354q0 119 16 242.5t51.5 245t85 216.5t124 153.5t161.5 58.5q38 0 97 -17 q-130 -171 -203.5 -392t-73.5 -466q0 -143 41 -237t121 -94q85 0 173.5 137t145 341t56.5 392q0 74 -6 130.5t-25 113t-51 93t-87 59t-130 22.5q-251 0 -402 -133.5t-151 -364.5q0 -46 6.5 -76t14 -44.5t7.5 -18.5q-110 0 -164.5 46t-54.5 153zM631 1810q0 51 36.5 88 t88.5 37q51 0 88 -37t37 -88q0 -52 -37 -88t-88 -36q-53 0 -89 36t-36 88zM999 1810q0 51 36.5 88t88.5 37q51 0 88 -37t37 -88q0 -52 -37 -88t-88 -36q-53 0 -89 36t-36 88z" />
<glyph unicode="&#xd7;" horiz-adv-x="1054" d="M201 338l194 194l-194 195l133 131l192 -194l197 196l131 -133l-195 -195l195 -194l-131 -133l-197 194l-192 -192z" />
<glyph unicode="&#xd8;" d="M12 897q0 99 64.5 197.5t166 171.5t232 118.5t256.5 45.5q70 0 143 -13l25 119h107l-31 -143q317 -110 317 -547q0 -162 -45 -317t-123.5 -277t-195.5 -196t-252 -74l-105 -494h-106l104 498q-78 5 -131.5 22.5t-95.5 56t-62 106.5t-20 169q0 118 16 242t51.5 245 t85.5 215t124 152.5t161 58.5q41 0 97 -16q-130 -171 -203.5 -392t-73.5 -466q0 -176 90 -213l246 1155q-51 14 -98 14q-252 0 -402.5 -133t-150.5 -364q0 -46 6.5 -76t14 -45t7.5 -19q-110 0 -164.5 46t-54.5 153zM713 156q83 20 161.5 121t129.5 266t51 346 q0 279 -107 379z" />
<glyph unicode="&#xd9;" horiz-adv-x="1388" d="M12 1004q0 132 108 256.5t275 200t336 75.5q117 0 154 -10q-137 -180 -252 -494.5t-115 -546.5q0 -143 41 -237t121 -94q112 0 199 157l262 1221h293l-326 -1532h-295l23 106q-116 -104 -199 -104q-188 0 -283.5 98.5t-95.5 335.5q0 109 21 242.5t59.5 272t103 266.5 t142.5 206q-179 -42 -280 -166.5t-101 -312.5q0 -46 6.5 -76t14 -44.5t7.5 -18.5q-110 0 -164.5 46t-54.5 153zM803 2048h215l59 -387h-153z" />
<glyph unicode="&#xda;" horiz-adv-x="1388" d="M12 1004q0 132 108 256.5t275 200t336 75.5q117 0 154 -10q-137 -180 -252 -494.5t-115 -546.5q0 -143 41 -237t121 -94q112 0 199 157l262 1221h293l-326 -1532h-295l23 106q-116 -104 -199 -104q-188 0 -283.5 98.5t-95.5 335.5q0 109 21 242.5t59.5 272t103 266.5 t142.5 206q-179 -42 -280 -166.5t-101 -312.5q0 -46 6.5 -76t14 -44.5t7.5 -18.5q-110 0 -164.5 46t-54.5 153zM883 1661l186 387h215l-248 -387h-153z" />
<glyph unicode="&#xdb;" horiz-adv-x="1388" d="M12 1004q0 132 108 256.5t275 200t336 75.5q117 0 154 -10q-137 -180 -252 -494.5t-115 -546.5q0 -143 41 -237t121 -94q112 0 199 157l262 1221h293l-326 -1532h-295l23 106q-116 -104 -199 -104q-188 0 -283.5 98.5t-95.5 335.5q0 109 21 242.5t59.5 272t103 266.5 t142.5 206q-179 -42 -280 -166.5t-101 -312.5q0 -46 6.5 -76t14 -44.5t7.5 -18.5q-110 0 -164.5 46t-54.5 153zM700 1661l435 387h43l122 -387h-65l-123 164l-321 -164h-91z" />
<glyph unicode="&#xdc;" horiz-adv-x="1388" d="M12 1004q0 132 108 256.5t275 200t336 75.5q117 0 154 -10q-137 -180 -252 -494.5t-115 -546.5q0 -143 41 -237t121 -94q112 0 199 157l262 1221h293l-326 -1532h-295l23 106q-116 -104 -199 -104q-188 0 -283.5 98.5t-95.5 335.5q0 109 21 242.5t59.5 272t103 266.5 t142.5 206q-179 -42 -280 -166.5t-101 -312.5q0 -46 6.5 -76t14 -44.5t7.5 -18.5q-110 0 -164.5 46t-54.5 153zM774 1810q0 51 36.5 88t88.5 37q51 0 88 -37t37 -88q0 -52 -37 -88t-88 -36q-53 0 -89 36t-36 88zM1143 1810q0 51 36.5 88t88.5 37q51 0 88 -37t37 -88 q0 -52 -37 -88t-88 -36q-53 0 -89 36t-36 88z" />
<glyph unicode="&#xdd;" horiz-adv-x="1269" d="M12 1004q0 132 108 256.5t275 200t336 75.5q28 0 82 -4l178 -733l303 727h136l-398 -895l-135 -631h-328l136 631l-197 768q-144 -53 -224.5 -170.5t-80.5 -284.5q0 -46 6.5 -76t14 -44.5t7.5 -18.5q-110 0 -164.5 46t-54.5 153zM956 1661l187 387h215l-248 -387h-154z " />
<glyph unicode="&#xde;" horiz-adv-x="1193" d="M12 778q0 146 129.5 281t319.5 203l51 233l303 41l-49 -227q112 -5 199.5 -40t140 -90.5t79.5 -124.5t27 -147t-25.5 -156.5t-76.5 -149t-120.5 -125t-164.5 -86.5t-202 -32h-60l-76 -358h-294l245 1151q-115 -60 -175 -170t-60 -262q0 -46 6.5 -76t14 -44.5t7.5 -18.5 q-110 0 -164.5 45.5t-54.5 152.5zM575 418q2 3 15 16h18q78 0 149.5 47t121 120.5t79 163t29.5 173.5q0 119 -60 197t-182 82z" />
<glyph unicode="&#xdf;" horiz-adv-x="921" d="M-174 -512l340 1597q18 84 50 148.5t68.5 101.5t82.5 60t86.5 31t85.5 8q135 0 207.5 -75.5t72.5 -184.5q0 -92 -49.5 -175.5t-138.5 -124.5q103 -35 150.5 -112.5t47.5 -177.5q0 -40 -10 -92q-25 -121 -56.5 -209t-65 -142t-76.5 -86t-85.5 -43.5t-95.5 -11.5 q-21 0 -67 4l26 121q36 7 59.5 20.5t50 49t49 104t44.5 176.5q21 100 21 152q0 70 -34 113.5t-114 64.5l37 119q73 30 121.5 87t48.5 140q0 58 -18.5 80t-59.5 22q-43 0 -83 -38t-60 -130l-326 -1523z" />
<glyph unicode="&#xe0;" horiz-adv-x="1030" d="M-37 248q0 112 16 216.5t55.5 207.5t99 179.5t154 123.5t212.5 47q76 0 137 -51l12 53h295l-147 -696q-9 -52 -9 -64q0 -37 22.5 -57.5t80.5 -20.5q29 0 67 20.5t66 43.5t73.5 62.5t63.5 54.5h70q-13 -13 -56.5 -58.5t-76.5 -79.5t-84.5 -80t-93 -76t-89.5 -51.5 t-86 -21.5q-209 0 -249 156q-122 -168 -279 -168q-71 0 -122.5 23t-79 62t-40 82.5t-12.5 92.5zM240 303q0 -145 118 -145q61 0 131 102q2 24 13 68l114 542q-42 37 -100 37q-74 0 -139 -93t-101 -232t-36 -279zM377 1536h215l59 -387h-153z" />
<glyph unicode="&#xe1;" horiz-adv-x="1001" d="M-37 248q0 112 16 216.5t55.5 207.5t99 179.5t154 123.5t212.5 47q76 0 137 -51l12 53h295l-147 -696q-9 -52 -9 -64q0 -37 22.5 -57.5t80.5 -20.5q29 0 67 20.5t66 43.5t73.5 62.5t63.5 54.5h70q-13 -13 -56.5 -58.5t-76.5 -79.5t-84.5 -80t-93 -76t-89.5 -51.5 t-86 -21.5q-209 0 -249 156q-122 -168 -279 -168q-71 0 -122.5 23t-79 62t-40 82.5t-12.5 92.5zM240 303q0 -145 118 -145q61 0 131 102q2 24 13 68l114 542q-42 37 -100 37q-74 0 -139 -93t-101 -232t-36 -279zM506 1149l186 387h215l-248 -387h-153z" />
<glyph unicode="&#xe2;" horiz-adv-x="1030" d="M-37 248q0 112 16 216.5t55.5 207.5t99 179.5t154 123.5t212.5 47q76 0 137 -51l12 53h295l-147 -696q-9 -52 -9 -64q0 -37 22.5 -57.5t80.5 -20.5q29 0 67 20.5t66 43.5t73.5 62.5t63.5 54.5h70q-13 -13 -56.5 -58.5t-76.5 -79.5t-84.5 -80t-93 -76t-89.5 -51.5 t-86 -21.5q-209 0 -249 156q-122 -168 -279 -168q-71 0 -122.5 23t-79 62t-40 82.5t-12.5 92.5zM240 303q0 -145 118 -145q61 0 131 102q2 24 13 68l114 542q-42 37 -100 37q-74 0 -139 -93t-101 -232t-36 -279zM305 1149l434 387h43l123 -387h-65l-123 164l-322 -164h-90z " />
<glyph unicode="&#xe3;" horiz-adv-x="1030" d="M-37 248q0 112 16 216.5t55.5 207.5t99 179.5t154 123.5t212.5 47q76 0 137 -51l12 53h295l-147 -696q-9 -52 -9 -64q0 -37 22.5 -57.5t80.5 -20.5q29 0 67 20.5t66 43.5t73.5 62.5t63.5 54.5h70q-13 -13 -56.5 -58.5t-76.5 -79.5t-84.5 -80t-93 -76t-89.5 -51.5 t-86 -21.5q-209 0 -249 156q-122 -168 -279 -168q-71 0 -122.5 23t-79 62t-40 82.5t-12.5 92.5zM174 1192q49 98 137 149.5t205 51.5q79 0 180.5 -34t157.5 -34q85 0 129 47l12 -2q-18 -75 -117 -140t-212 -65q-70 0 -180 38t-164 38q-80 0 -136 -53zM240 303 q0 -145 118 -145q61 0 131 102q2 24 13 68l114 542q-42 37 -100 37q-74 0 -139 -93t-101 -232t-36 -279z" />
<glyph unicode="&#xe4;" horiz-adv-x="1030" d="M-37 248q0 112 16 216.5t55.5 207.5t99 179.5t154 123.5t212.5 47q76 0 137 -51l12 53h295l-147 -696q-9 -52 -9 -64q0 -37 22.5 -57.5t80.5 -20.5q29 0 67 20.5t66 43.5t73.5 62.5t63.5 54.5h70q-13 -13 -56.5 -58.5t-76.5 -79.5t-84.5 -80t-93 -76t-89.5 -51.5 t-86 -21.5q-209 0 -249 156q-122 -168 -279 -168q-71 0 -122.5 23t-79 62t-40 82.5t-12.5 92.5zM240 303q0 -145 118 -145q61 0 131 102q2 24 13 68l114 542q-42 37 -100 37q-74 0 -139 -93t-101 -232t-36 -279zM299 1298q0 51 36.5 88t88.5 37q51 0 88 -37t37 -88 q0 -52 -37 -88t-88 -36q-53 0 -89 36t-36 88zM668 1298q0 51 36.5 88t88.5 37q51 0 88 -37t37 -88q0 -52 -37 -88t-88 -36q-53 0 -89 36t-36 88z" />
<glyph unicode="&#xe5;" horiz-adv-x="1030" d="M-37 248q0 112 16 216.5t55.5 207.5t99 179.5t154 123.5t212.5 47q76 0 137 -51l12 53h295l-147 -696q-9 -52 -9 -64q0 -37 22.5 -57.5t80.5 -20.5q29 0 67 20.5t66 43.5t73.5 62.5t63.5 54.5h70q-13 -13 -56.5 -58.5t-76.5 -79.5t-84.5 -80t-93 -76t-89.5 -51.5 t-86 -21.5q-209 0 -249 156q-122 -168 -279 -168q-71 0 -122.5 23t-79 62t-40 82.5t-12.5 92.5zM240 303q0 -145 118 -145q61 0 131 102q2 24 13 68l114 542q-42 37 -100 37q-74 0 -139 -93t-101 -232t-36 -279zM489 1284q0 66 45.5 126t129.5 60q72 0 109.5 -43.5 t37.5 -113.5q0 -74 -44 -123t-134 -49q-64 0 -104 41.5t-40 101.5zM571 1288q0 -76 70 -76q46 0 70 25.5t24 69.5q0 20 -1.5 32.5t-7 29.5t-20.5 25.5t-38 8.5q-49 0 -73 -35t-24 -80z" />
<glyph unicode="&#xe6;" horiz-adv-x="1280" d="M-37 248q0 112 16 216.5t55.5 207.5t99 179.5t154 123.5t212.5 47q67 0 126 -42t60 -93q125 155 313 155q128 0 195.5 -53.5t67.5 -159.5q0 -89 -44.5 -166t-114.5 -127.5t-148.5 -82t-155.5 -41.5q-6 -49 -6 -88q0 -93 49 -135t119 -42q79 0 185.5 80.5t158.5 190.5h92 q-37 -66 -79.5 -124.5t-98.5 -113.5t-116 -94t-133.5 -62.5t-150.5 -23.5q-110 0 -184 57t-103 152q-136 -221 -315 -221q-71 0 -122.5 23t-79 62t-40 82.5t-12.5 92.5zM240 303q0 -145 118 -145q67 0 158 143v25q0 123 32 262t99 246q-43 73 -131 73q-74 0 -139 -93 t-101 -232t-36 -279zM815 510q90 1 165.5 48t116.5 117.5t42 143.5q0 27 -4.5 50t-22 44t-45.5 21q-54 0 -106.5 -68t-87.5 -159.5t-58 -196.5z" />
<glyph unicode="&#xe7;" horiz-adv-x="737" d="M-27 336q0 95 16 187.5t55.5 185.5t98 163t151 114t206.5 44q225 0 225 -141q0 -34 -10 -68q-22 13 -51 13q-22 0 -66 -13q10 38 10 58q0 69 -76 69q-81 0 -148 -94t-100.5 -219.5t-33.5 -241.5q0 -104 31.5 -161.5t117.5 -57.5q186 0 357 193h69q-100 -156 -223 -257 t-235 -110l-56 -135q66 16 109 16q63 0 95 -27t32 -75q0 -104 -74.5 -164.5t-171.5 -60.5q-70 0 -117.5 14t-101.5 43q35 65 82 65q45 0 85.5 -27.5t65.5 -27.5t43.5 27t18.5 59t-20 53t-60 21q-49 0 -107 -25l89 244q-159 0 -232.5 91.5t-73.5 244.5z" />
<glyph unicode="&#xe8;" horiz-adv-x="727" d="M-37 326q0 69 10 143.5t31.5 157t60.5 155.5t90 132t126 93.5t165 34.5q128 0 195.5 -53.5t67.5 -159.5q0 -89 -44.5 -166t-114.5 -127.5t-148.5 -82t-155.5 -41.5q-6 -50 -6 -88q0 -93 49 -135t119 -42q79 0 185.5 80.5t158.5 190.5h92q-37 -66 -79.5 -124.5 t-98.5 -113.5t-116 -94t-133.5 -62.5t-150.5 -23.5q-142 0 -222.5 93.5t-80.5 232.5zM225 1536h215l60 -387h-154zM262 510q90 1 165.5 48t116.5 117.5t42 143.5q0 27 -4.5 50t-22 44t-45.5 21q-54 0 -106.5 -68t-87.5 -159.5t-58 -196.5z" />
<glyph unicode="&#xe9;" horiz-adv-x="741" d="M-37 326q0 69 10 143.5t31.5 157t60.5 155.5t90 132t126 93.5t165 34.5q128 0 195.5 -53.5t67.5 -159.5q0 -89 -44.5 -166t-114.5 -127.5t-148.5 -82t-155.5 -41.5q-6 -50 -6 -88q0 -93 49 -135t119 -42q79 0 185.5 80.5t158.5 190.5h92q-37 -66 -79.5 -124.5 t-98.5 -113.5t-116 -94t-133.5 -62.5t-150.5 -23.5q-142 0 -222.5 93.5t-80.5 232.5zM262 510q90 1 165.5 48t116.5 117.5t42 143.5q0 27 -4.5 50t-22 44t-45.5 21q-54 0 -106.5 -68t-87.5 -159.5t-58 -196.5zM418 1149l186 387h215l-248 -387h-153z" />
<glyph unicode="&#xea;" horiz-adv-x="727" d="M-37 326q0 69 10 143.5t31.5 157t60.5 155.5t90 132t126 93.5t165 34.5q128 0 195.5 -53.5t67.5 -159.5q0 -89 -44.5 -166t-114.5 -127.5t-148.5 -82t-155.5 -41.5q-6 -50 -6 -88q0 -93 49 -135t119 -42q79 0 185.5 80.5t158.5 190.5h92q-37 -66 -79.5 -124.5 t-98.5 -113.5t-116 -94t-133.5 -62.5t-150.5 -23.5q-142 0 -222.5 93.5t-80.5 232.5zM166 1149l434 387h43l123 -387h-66l-122 164l-322 -164h-90zM262 510q90 1 165.5 48t116.5 117.5t42 143.5q0 27 -4.5 50t-22 44t-45.5 21q-54 0 -106.5 -68t-87.5 -159.5t-58 -196.5z " />
<glyph unicode="&#xeb;" horiz-adv-x="727" d="M-37 326q0 69 10 143.5t31.5 157t60.5 155.5t90 132t126 93.5t165 34.5q128 0 195.5 -53.5t67.5 -159.5q0 -89 -44.5 -166t-114.5 -127.5t-148.5 -82t-155.5 -41.5q-6 -50 -6 -88q0 -93 49 -135t119 -42q79 0 185.5 80.5t158.5 190.5h92q-37 -66 -79.5 -124.5 t-98.5 -113.5t-116 -94t-133.5 -62.5t-150.5 -23.5q-142 0 -222.5 93.5t-80.5 232.5zM147 1298q0 51 36.5 88t88.5 37q51 0 88 -37t37 -88q0 -52 -37 -88t-88 -36q-53 0 -89 36t-36 88zM262 510q90 1 165.5 48t116.5 117.5t42 143.5q0 27 -4.5 50t-22 44t-45.5 21 q-54 0 -106.5 -68t-87.5 -159.5t-58 -196.5zM516 1298q0 51 36.5 88t88.5 37q51 0 88 -37t37 -88q0 -52 -37 -88t-88 -36q-53 0 -89 36t-36 88z" />
<glyph unicode="&#xec;" horiz-adv-x="550" d="M-12 223q0 47 12 105l145 696h297l-147 -696q-10 -38 -10 -66q0 -37 22.5 -56.5t79.5 -19.5q29 0 67 20.5t66 43.5t73.5 62.5t63.5 54.5h70q-14 -14 -57 -59t-76 -79t-84 -80t-93 -76t-89.5 -51.5t-85.5 -21.5q-254 0 -254 223zM137 1536h215l60 -387h-154z" />
<glyph unicode="&#xed;" horiz-adv-x="522" d="M-12 223q0 47 12 105l145 696h297l-147 -696q-10 -38 -10 -66q0 -37 22.5 -56.5t79.5 -19.5q29 0 67 20.5t66 43.5t73.5 62.5t63.5 54.5h70q-14 -14 -57 -59t-76 -79t-84 -80t-93 -76t-89.5 -51.5t-85.5 -21.5q-254 0 -254 223zM236 1149l186 387h215l-248 -387h-153z " />
<glyph unicode="&#xee;" horiz-adv-x="550" d="M-14 1149l434 387h43l123 -387h-66l-123 164l-321 -164h-90zM-12 223q0 47 12 105l145 696h297l-147 -696q-10 -38 -10 -66q0 -37 22.5 -56.5t79.5 -19.5q29 0 67 20.5t66 43.5t73.5 62.5t63.5 54.5h70q-14 -14 -57 -59t-76 -79t-84 -80t-93 -76t-89.5 -51.5t-85.5 -21.5 q-254 0 -254 223z" />
<glyph unicode="&#xef;" horiz-adv-x="550" d="M-12 223q0 47 12 105l145 696h297l-147 -696q-10 -38 -10 -66q0 -37 22.5 -56.5t79.5 -19.5q29 0 67 20.5t66 43.5t73.5 62.5t63.5 54.5h70q-14 -14 -57 -59t-76 -79t-84 -80t-93 -76t-89.5 -51.5t-85.5 -21.5q-254 0 -254 223zM41 1298q0 51 36.5 88t88.5 37 q51 0 88 -37t37 -88q0 -52 -37 -88t-88 -36q-53 0 -89 36t-36 88zM410 1298q0 51 36.5 88t88.5 37q51 0 87.5 -37t36.5 -88q0 -52 -36.5 -88t-87.5 -36q-53 0 -89 36t-36 88z" />
<glyph unicode="&#xf0;" horiz-adv-x="1044" d="M-37 248q0 112 16 216.5t55.5 207.5t99 179.5t154 123.5t212.5 47q74 0 137 -53l6 24q21 97 23 156h-136l17 82h119q-12 104 -86 203h92q79 -44 133 -90t86 -113h151l-16 -82h-108q10 -55 10 -113q0 -81 -21 -186l-110 -522q-11 -63 -11 -66q0 -37 23 -56.5t80 -19.5 q29 0 67 20.5t66 43.5t73.5 62.5t63.5 54.5h70q-13 -13 -56.5 -58.5t-76.5 -79.5t-84.5 -80t-93 -76t-89.5 -51.5t-86 -21.5q-207 0 -247 156q-122 -168 -279 -168q-71 0 -122.5 23t-79 62t-40 82.5t-12.5 92.5zM240 303q0 -145 118 -145q61 0 131 102q2 24 13 68l114 542 q-42 37 -100 37q-74 0 -139 -93t-101 -232t-36 -279z" />
<glyph unicode="&#xf1;" horiz-adv-x="1030" d="M-74 0l217 1024h295l-24 -111q153 111 268 111q86 0 161 -78t75 -178q0 -29 -5 -49l-84 -391q-10 -38 -10 -66q0 -37 23 -56.5t80 -19.5q37 0 63.5 15t67 55t63.5 59h70q-19 -19 -62 -67.5t-78.5 -85.5t-81.5 -77t-94.5 -62.5t-93.5 -22.5q-254 0 -254 223q0 42 13 105 l77 368q6 27 6 54q0 55 -26 87.5t-68 32.5q-65 0 -129 -43l-174 -827h-295zM174 1192q49 98 137 149.5t205 51.5q79 0 180.5 -34t157.5 -34q85 0 129 47l12 -2q-18 -75 -117 -140t-212 -65q-70 0 -180 38t-164 38q-80 0 -136 -53z" />
<glyph unicode="&#xf2;" horiz-adv-x="856" d="M-14 324q0 183 44 324t119.5 226t170.5 127.5t204 42.5q240 0 248 -301q18 -18 59 -18q42 0 78 17.5t73.5 44.5t64.5 38l8 -43q-47 -60 -123.5 -107.5t-165.5 -72.5q-14 -149 -60 -269t-111.5 -193.5t-141 -112.5t-154.5 -39q-166 0 -239.5 77.5t-73.5 258.5zM258 342 q0 -87 35.5 -121.5t101.5 -34.5q45 0 83 33.5t64.5 90.5t44 125.5t27.5 146.5q-42 0 -64 26.5t-22 65.5q0 46 25 87t65 56q-9 107 -86 107q-68 0 -123.5 -67t-86.5 -164t-47.5 -190t-16.5 -161zM291 1536h215l59 -387h-153z" />
<glyph unicode="&#xf3;" horiz-adv-x="886" d="M-4 324q0 183 44 324t120 226t171 127.5t204 42.5q239 0 247 -301q18 -18 60 -18t77.5 17.5t73 44.5t64.5 38l8 -43q-47 -60 -123.5 -107.5t-165.5 -72.5q-14 -149 -60 -269t-111.5 -193.5t-141 -112.5t-154.5 -39q-166 0 -239.5 77.5t-73.5 258.5zM268 342 q0 -87 36 -121.5t102 -34.5q45 0 83 33.5t64.5 90.5t44 125.5t27.5 146.5q-42 0 -64 26.5t-22 65.5q0 46 25 87t65 56q-9 107 -86 107q-68 0 -123.5 -67t-87 -164t-48 -190t-16.5 -161zM442 1149l187 387h215l-248 -387h-154z" />
<glyph unicode="&#xf4;" horiz-adv-x="856" d="M-14 324q0 183 44 324t119.5 226t170.5 127.5t204 42.5q240 0 248 -301q18 -18 59 -18q42 0 78 17.5t73.5 44.5t64.5 38l8 -43q-47 -60 -123.5 -107.5t-165.5 -72.5q-14 -149 -60 -269t-111.5 -193.5t-141 -112.5t-154.5 -39q-166 0 -239.5 77.5t-73.5 258.5zM209 1149 l434 387h43l123 -387h-66l-122 164l-322 -164h-90zM258 342q0 -87 35.5 -121.5t101.5 -34.5q45 0 83 33.5t64.5 90.5t44 125.5t27.5 146.5q-42 0 -64 26.5t-22 65.5q0 46 25 87t65 56q-9 107 -86 107q-68 0 -123.5 -67t-86.5 -164t-47.5 -190t-16.5 -161z" />
<glyph unicode="&#xf5;" horiz-adv-x="856" d="M-14 324q0 183 44 324t119.5 226t170.5 127.5t204 42.5q240 0 248 -301q18 -18 59 -18q42 0 78 17.5t73.5 44.5t64.5 38l8 -43q-47 -60 -123.5 -107.5t-165.5 -72.5q-14 -149 -60 -269t-111.5 -193.5t-141 -112.5t-154.5 -39q-166 0 -239.5 77.5t-73.5 258.5zM115 1192 q49 98 137 149.5t205 51.5q79 0 180.5 -34t157.5 -34q85 0 129 47l12 -2q-18 -75 -117.5 -140t-212.5 -65q-70 0 -180 38t-164 38q-79 0 -135 -53zM258 342q0 -87 35.5 -121.5t101.5 -34.5q45 0 83 33.5t64.5 90.5t44 125.5t27.5 146.5q-42 0 -64 26.5t-22 65.5q0 46 25 87 t65 56q-9 107 -86 107q-68 0 -123.5 -67t-86.5 -164t-47.5 -190t-16.5 -161z" />
<glyph unicode="&#xf6;" horiz-adv-x="856" d="M-14 324q0 183 44 324t119.5 226t170.5 127.5t204 42.5q240 0 248 -301q18 -18 59 -18q42 0 78 17.5t73.5 44.5t64.5 38l8 -43q-47 -60 -123.5 -107.5t-165.5 -72.5q-14 -149 -60 -269t-111.5 -193.5t-141 -112.5t-154.5 -39q-166 0 -239.5 77.5t-73.5 258.5zM213 1298 q0 51 36.5 88t88.5 37q51 0 88 -37t37 -88q0 -52 -37 -88t-88 -36q-53 0 -89 36t-36 88zM258 342q0 -87 35.5 -121.5t101.5 -34.5q45 0 83 33.5t64.5 90.5t44 125.5t27.5 146.5q-42 0 -64 26.5t-22 65.5q0 46 25 87t65 56q-9 107 -86 107q-68 0 -123.5 -67t-86.5 -164 t-47.5 -190t-16.5 -161zM582 1298q0 51 36.5 88t88.5 37q51 0 87.5 -37t36.5 -88q0 -52 -36.5 -88t-87.5 -36q-53 0 -89 36t-36 88z" />
<glyph unicode="&#xf7;" horiz-adv-x="966" d="M104 422l37 162h717l-35 -162h-719zM301 164q0 68 47.5 116t114.5 48t115.5 -48t48.5 -116q0 -67 -48 -114.5t-116 -47.5q-67 0 -114.5 47t-47.5 115zM424 850q0 68 47.5 116t114.5 48q68 0 116 -48t48 -116q0 -67 -48 -114.5t-116 -47.5t-115 47t-47 115z" />
<glyph unicode="&#xf8;" horiz-adv-x="856" d="M-14 324q0 141 26.5 257.5t72.5 198.5t110 140t137 87t155 35l105 494h106l-106 -500q176 -39 180 -293q18 -18 59 -18q42 0 78 17.5t73.5 44.5t64.5 38l8 -43q-47 -60 -123.5 -107.5t-165.5 -72.5q-13 -131 -50.5 -240.5t-92 -183.5t-118.5 -120t-134 -62l-107 -508 h-106l106 502q-147 8 -212.5 85t-65.5 249zM258 342q0 -104 51 -135l148 692q-64 -42 -112 -153.5t-67.5 -218t-19.5 -185.5zM412 188q55 8 98 68t67.5 142.5t36.5 183.5q-42 0 -64 26.5t-22 65.5q0 46 25 87t65 56q-6 82 -51 101z" />
<glyph unicode="&#xf9;" horiz-adv-x="1064" d="M-29 223q0 42 13 105l147 696h295l-147 -696q-9 -52 -9 -64q0 -37 22.5 -57.5t80.5 -20.5q53 0 145 74q3 31 12 68l148 696h295l-148 -696q-8 -46 -8 -64q0 -37 22.5 -57.5t80.5 -20.5q29 0 67 20.5t66 43.5t73.5 62.5t63.5 54.5h70q-13 -13 -56.5 -58.5t-76.5 -79.5 t-84.5 -80t-93 -76t-89.5 -51.5t-86 -21.5q-108 0 -173.5 42.5t-78.5 129.5q-183 -172 -295 -172q-122 0 -189 55t-67 168zM395 1536h215l60 -387h-154z" />
<glyph unicode="&#xfa;" horiz-adv-x="1044" d="M-29 223q0 42 13 105l147 696h295l-147 -696q-9 -52 -9 -64q0 -37 22.5 -57.5t80.5 -20.5q53 0 145 74q3 31 12 68l148 696h295l-148 -696q-8 -46 -8 -64q0 -37 22.5 -57.5t80.5 -20.5q29 0 67 20.5t66 43.5t73.5 62.5t63.5 54.5h70q-13 -13 -56.5 -58.5t-76.5 -79.5 t-84.5 -80t-93 -76t-89.5 -51.5t-86 -21.5q-108 0 -173.5 42.5t-78.5 129.5q-183 -172 -295 -172q-122 0 -189 55t-67 168zM489 1149l187 387h215l-248 -387h-154z" />
<glyph unicode="&#xfb;" horiz-adv-x="1064" d="M-29 223q0 42 13 105l147 696h295l-147 -696q-9 -52 -9 -64q0 -37 22.5 -57.5t80.5 -20.5q53 0 145 74q3 31 12 68l148 696h295l-148 -696q-8 -46 -8 -64q0 -37 22.5 -57.5t80.5 -20.5q29 0 67 20.5t66 43.5t73.5 62.5t63.5 54.5h70q-13 -13 -56.5 -58.5t-76.5 -79.5 t-84.5 -80t-93 -76t-89.5 -51.5t-86 -21.5q-108 0 -173.5 42.5t-78.5 129.5q-183 -172 -295 -172q-122 0 -189 55t-67 168zM270 1149l435 387h43l122 -387h-65l-123 164l-322 -164h-90z" />
<glyph unicode="&#xfc;" horiz-adv-x="1064" d="M-29 223q0 42 13 105l147 696h295l-147 -696q-9 -52 -9 -64q0 -37 22.5 -57.5t80.5 -20.5q53 0 145 74q3 31 12 68l148 696h295l-148 -696q-8 -46 -8 -64q0 -37 22.5 -57.5t80.5 -20.5q29 0 67 20.5t66 43.5t73.5 62.5t63.5 54.5h70q-13 -13 -56.5 -58.5t-76.5 -79.5 t-84.5 -80t-93 -76t-89.5 -51.5t-86 -21.5q-108 0 -173.5 42.5t-78.5 129.5q-183 -172 -295 -172q-122 0 -189 55t-67 168zM274 1298q0 51 36.5 88t88.5 37q51 0 88 -37t37 -88q0 -52 -37 -88t-88 -36q-53 0 -89 36t-36 88zM643 1298q0 51 36.5 88t88.5 37q51 0 88 -37 t37 -88q0 -52 -37 -88t-88 -36q-53 0 -89 36t-36 88z" />
<glyph unicode="&#xfd;" horiz-adv-x="1044" d="M-29 223q0 42 13 105l147 696h295l-147 -696q-9 -52 -9 -64q0 -37 22.5 -57.5t80.5 -20.5q59 0 153 80l162 758h295l-190 -897q223 107 313 303l-8 -162q-19 -89 -103 -142.5t-223 -92.5l-41 -197q-72 -348 -369 -348q-97 0 -169 62t-72 159q0 55 19 99t47.5 73.5t78 56 t94.5 42.5t113 36l29 140q-171 -156 -275 -156q-122 0 -189 55t-67 168zM233 -262q0 -23 25 -45.5t57 -22.5q36 0 69 38.5t50 121.5l25 119q-109 -36 -167.5 -85t-58.5 -126zM483 1149l187 387h215l-248 -387h-154z" />
<glyph unicode="&#xfe;" horiz-adv-x="931" d="M-197 -512l320 1505q24 111 24 191q0 132 -88 250h93q102 -55 164 -119.5t83 -173.5q82 45 160 45q163 0 238 -66t75 -221q0 -63 -12 -143q-84 -590 -448 -590q-86 0 -162 43l-137 -647zM276 336q41 -19 103 -19q52 0 87.5 36.5t66 124t65.5 253.5q27 135 27 207 q0 85 -29.5 116t-85.5 31q-47 0 -100 -32q0 -91 -23 -203z" />
<glyph unicode="&#xff;" horiz-adv-x="1044" d="M-29 223q0 42 13 105l147 696h295l-147 -696q-9 -52 -9 -64q0 -37 22.5 -57.5t80.5 -20.5q59 0 153 80l162 758h295l-190 -897q223 107 313 303l-8 -162q-19 -89 -103 -142.5t-223 -92.5l-41 -197q-72 -348 -369 -348q-97 0 -169 62t-72 159q0 55 19 99t47.5 73.5t78 56 t94.5 42.5t113 36l29 140q-171 -156 -275 -156q-122 0 -189 55t-67 168zM233 -262q0 -23 25 -45.5t57 -22.5q36 0 69 38.5t50 121.5l25 119q-109 -36 -167.5 -85t-58.5 -126zM272 1298q0 51 36.5 88t88.5 37q51 0 88 -37t37 -88q0 -52 -37 -88t-88 -36q-53 0 -89 36t-36 88z M641 1298q0 51 36.5 88t88.5 37q51 0 88 -37t37 -88q0 -52 -37 -88t-88 -36q-53 0 -89 36t-36 88z" />
<glyph unicode="&#x152;" horiz-adv-x="2287" d="M12 1004q0 132 108 256.5t275 200t336 75.5t287 -47q146 47 330 47q35 0 152.5 -12.5t187.5 -12.5q105 0 184 25q-5 -14 -13.5 -45t-14.5 -50t-20.5 -46.5t-31.5 -45t-47 -34.5t-68 -25q-99 0 -286 39l-101 -471h316l-41 -151h-305l-107 -490h457l-43 -217h-756l2 8 q-70 -26 -133 -26q-206 0 -313 108t-107 354q0 119 16 242.5t51.5 245t85 216.5t124 153.5t161.5 58.5q38 0 97 -17q-130 -171 -203.5 -392t-73.5 -466q0 -143 41 -237t121 -94q85 0 173.5 137t145 341t56.5 392q0 74 -6 130.5t-25 113t-51 93t-87 59t-130 22.5 q-251 0 -402 -133.5t-151 -364.5q0 -46 6.5 -76t14 -44.5t7.5 -18.5q-110 0 -164.5 46t-54.5 153z" />
<glyph unicode="&#x153;" horiz-adv-x="1583" d="M-14 324q0 183 44 324t119.5 226t170.5 127.5t204 42.5q240 0 248 -301q18 -18 59 -18q40 0 70 12q131 305 402 305q127 0 194.5 -53.5t67.5 -159.5q0 -89 -44.5 -166t-114.5 -127.5t-148.5 -82t-155.5 -41.5q-6 -49 -6 -88q0 -93 49 -135t119 -42q79 0 185.5 80.5 t158.5 190.5h92q-37 -66 -79.5 -124.5t-98.5 -113.5t-116 -94t-133.5 -62.5t-150.5 -23.5q-142 0 -222.5 93.5t-80.5 232.5q0 162 45 313q-54 -25 -98 -37q-14 -149 -60 -269t-111.5 -193.5t-141 -112.5t-154.5 -39q-166 0 -239.5 77.5t-73.5 258.5zM258 342 q0 -87 35.5 -121.5t101.5 -34.5q45 0 83 33.5t64.5 90.5t44 125.5t27.5 146.5q-42 0 -64 26.5t-22 65.5q0 46 25 87t65 56q-9 107 -86 107q-68 0 -123.5 -67t-86.5 -164t-47.5 -190t-16.5 -161zM1118 510q90 1 165.5 48t116.5 117.5t42 143.5q0 27 -4.5 50t-22 44t-45.5 21 q-54 0 -106.5 -68t-87.5 -159.5t-58 -196.5z" />
<glyph unicode="&#x178;" horiz-adv-x="1269" d="M12 1004q0 132 108 256.5t275 200t336 75.5q28 0 82 -4l178 -733l303 727h136l-398 -895l-135 -631h-328l136 631l-197 768q-144 -53 -224.5 -170.5t-80.5 -284.5q0 -46 6.5 -76t14 -44.5t7.5 -18.5q-110 0 -164.5 46t-54.5 153zM913 1810q0 51 36.5 88t88.5 37 q51 0 88 -37t37 -88q0 -52 -37 -88t-88 -36q-53 0 -89 36t-36 88zM1282 1810q0 51 36.5 88t88.5 37q51 0 88 -37t37 -88q0 -52 -37 -88t-88 -36q-53 0 -89 36t-36 88z" />
<glyph unicode="&#x2c6;" horiz-adv-x="862" d="M102 1149l435 387h43l122 -387h-65l-123 164l-321 -164h-91z" />
<glyph unicode="&#x2dc;" horiz-adv-x="882" d="M100 1192q49 98 137 149.5t205 51.5q79 0 180.5 -34t157.5 -34q85 0 129 47l13 -2q-18 -75 -117.5 -140t-212.5 -65q-70 0 -180 38t-164 38q-79 0 -135 -53z" />
<glyph unicode="&#x2000;" horiz-adv-x="1024" />
<glyph unicode="&#x2001;" horiz-adv-x="2048" />
<glyph unicode="&#x2002;" horiz-adv-x="1024" />
<glyph unicode="&#x2003;" horiz-adv-x="2048" />
<glyph unicode="&#x2004;" horiz-adv-x="682" />
<glyph unicode="&#x2005;" horiz-adv-x="512" />
<glyph unicode="&#x2006;" horiz-adv-x="341" />
<glyph unicode="&#x2007;" horiz-adv-x="341" />
<glyph unicode="&#x2008;" horiz-adv-x="256" />
<glyph unicode="&#x2009;" horiz-adv-x="409" />
<glyph unicode="&#x200a;" horiz-adv-x="113" />
<glyph unicode="&#x2010;" horiz-adv-x="593" d="M39 455l37 161h409l-34 -161h-412z" />
<glyph unicode="&#x2011;" horiz-adv-x="593" d="M39 455l37 161h409l-34 -161h-412z" />
<glyph unicode="&#x2012;" horiz-adv-x="593" d="M39 455l37 161h409l-34 -161h-412z" />
<glyph unicode="&#x2013;" horiz-adv-x="720" d="M39 455l37 161h532l-35 -161h-534z" />
<glyph unicode="&#x2014;" horiz-adv-x="909" d="M39 455l37 161h717l-35 -161h-719z" />
<glyph unicode="&#x2018;" horiz-adv-x="624" d="M172 1397q0 60 34.5 97.5t96.5 37.5q63 0 106.5 -42t43.5 -101q0 -74 -91 -129q-24 -15 -24 -35l100 -144q0 -18 -18 -28q-115 73 -181.5 168t-66.5 176z" />
<glyph unicode="&#x2019;" horiz-adv-x="624" d="M172 1389q0 59 43.5 101t106.5 42q62 0 96.5 -37.5t34.5 -97.5q0 -81 -66.5 -176t-181.5 -168q-19 11 -19 28l101 144q0 19 -25 35q-90 55 -90 129z" />
<glyph unicode="&#x201a;" horiz-adv-x="579" d="M156 156q0 59 43 101t106 42q62 0 96.5 -37.5t34.5 -97.5q0 -81 -66.5 -176t-181.5 -168q-18 10 -18 28l100 144q0 20 -24 35q-90 55 -90 129z" />
<glyph unicode="&#x201c;" horiz-adv-x="1042" d="M156 1397q0 60 34.5 97.5t96.5 37.5q63 0 106 -42t43 -101q0 -74 -90 -129q-24 -15 -24 -35l100 -144q0 -17 -19 -28q-114 73 -180.5 167.5t-66.5 176.5zM606 1397q0 60 34.5 97.5t96.5 37.5q63 0 106.5 -42t43.5 -101q0 -74 -90 -129q-25 -16 -25 -35l100 -144 q0 -18 -18 -28q-115 73 -181.5 168t-66.5 176z" />
<glyph unicode="&#x201d;" horiz-adv-x="1042" d="M156 1389q0 59 43 101t106 42q62 0 96.5 -37.5t34.5 -97.5q0 -81 -66.5 -176t-181.5 -168q-18 10 -18 28l100 144q0 20 -24 35q-90 55 -90 129zM606 1389q0 59 43.5 101t106.5 42q62 0 96.5 -37.5t34.5 -97.5q0 -81 -66.5 -176t-181.5 -168q-18 10 -18 28l100 144 q0 19 -25 35q-90 55 -90 129z" />
<glyph unicode="&#x201e;" horiz-adv-x="1042" d="M156 156q0 59 43 101t106 42q62 0 96.5 -37.5t34.5 -97.5q0 -81 -66.5 -176t-181.5 -168q-18 10 -18 28l100 144q0 20 -24 35q-90 55 -90 129zM606 156q0 59 43.5 101t106.5 42q62 0 96.5 -37.5t34.5 -97.5q0 -81 -66.5 -176t-181.5 -168q-18 10 -18 28l100 144 q0 19 -25 35q-90 55 -90 129z" />
<glyph unicode="&#x2022;" horiz-adv-x="888" d="M246 547q0 82 57 140t139 58t140.5 -58t58.5 -140t-58.5 -139.5t-140.5 -57.5t-139 57.5t-57 139.5z" />
<glyph unicode="&#x2026;" horiz-adv-x="1437" d="M63 154q0 68 47.5 115.5t114.5 47.5q68 0 116 -48t48 -115t-48 -114.5t-116 -47.5q-67 0 -114.5 47t-47.5 115zM545 154q0 68 47.5 115.5t114.5 47.5t115 -47.5t48 -115.5q0 -67 -47.5 -114.5t-115.5 -47.5q-67 0 -114.5 47t-47.5 115zM1047 154q0 68 47 115.5t114 47.5 q68 0 116 -48t48 -115t-48 -114.5t-116 -47.5q-67 0 -114 47t-47 115z" />
<glyph unicode="&#x202f;" horiz-adv-x="409" />
<glyph unicode="&#x2039;" horiz-adv-x="735" d="M41 487l18 84l629 349l-20 -113l-494 -287l397 -237l-24 -117z" />
<glyph unicode="&#x203a;" horiz-adv-x="704" d="M31 166l28 117l492 237l-397 287l18 113l504 -349l-23 -110z" />
<glyph unicode="&#x205f;" horiz-adv-x="512" />
<glyph unicode="&#x20ac;" horiz-adv-x="1173" d="M-6 582l29 102h151q4 43 16 133h-145l29 103h137q24 103 59.5 190.5t90.5 167.5t124.5 136t165 89t207.5 33q59 0 110.5 -9t97 -30t78 -52.5t51.5 -78t19 -104.5q0 -87 -34.5 -138t-108.5 -51q-71 0 -117 53q35 10 62.5 67t27.5 101q0 14 -2 28.5t-10.5 37t-22.5 39 t-41.5 29t-64.5 12.5q-83 0 -158 -75t-126 -189t-84 -256h413l-28 -103h-408q-13 -75 -16 -133h401l-29 -102h-379v-27q0 -84 7 -143t24.5 -107t48.5 -76t78 -42.5t113 -14.5q119 0 186.5 17.5t128.5 64.5l4 -59q-88 -116 -198.5 -161.5t-264.5 -45.5q-67 0 -127 13.5 t-120.5 50t-103.5 93t-70 150.5t-27 215v72h-174z" />
<glyph unicode="&#x2122;" horiz-adv-x="776" d="M-47 1188q0 68 51.5 114t157.5 46q8 0 63.5 -5.5t89.5 -5.5q51 0 76 11q-2 -6 -6 -22.5t-7.5 -27.5t-12.5 -20.5t-23 -9.5q-20 0 -66 8t-57 10l-86 -399h-88l88 407q-58 -2 -90.5 -30t-32.5 -95q0 -17 8 -41q-65 0 -65 60zM305 887l139 430l84 12v-346l136 356h96 l-78 -452h-88l55 319l-129 -319h-84v268l-82 -268h-49z" />
<glyph unicode="&#x25fc;" horiz-adv-x="1075" d="M0 0v1075h1075v-1075h-1075z" />
</font>
</defs>
</svg>
